Как не стать президентом / The Front Runner (Джейсон Рейтмен) [2018, драма, биография, история, BDRip 1080p | iTunes]

Ответить на тему
Статистика раздачи [Обновить пиров]
Размер:  8,25 GB   |    Зарегистрирован:  5 месяцев 3 дня   |    .torrent скачан:  9 раз
Сидов:  173  [  0 KB/s  ]   Личеров:  18  [  0 KB/s  ]   Подробная статистика пиров
 
   
 
 
Автор Сообщение

Skorp10n ®

Оффлайн

 Активный раздающий 1 Активный раздающий 2
 Активный релизер 1000 Активный релизер 1500 Активный релизер 2000 Активный релизер 250 Активный релизер 3000 Активный релизер 500 Активный релизер 5000 Активный релизер Фильмов (1000) Активный релизер Фильмов (300) Активный релизер Фильмов (600) Активный Форумчанин 1 Активный Форумчанин 2 Активный Форумчанин 3 Активный Форумчанин 4 Друг трекера Карма 1000 Карма 1500 Карма 3000 Карма 500 Меценат Ни дня без новостей Орденосец 1 степени Орденосец 2 степени Орденосец 3 степени Почетный орденосец Почетный репортер С Новым 2016 Годом! С Новым 2017 Годом! С Новым 2018 Годом! С Новым 2019 Годом! Супер Мега Контер Квейк ТОП-10

Пол: Мужской

Стаж: 3 года 11 месяцев

Наличие запрета:

Сообщений: 10847

Откуда: Free-Tor.com

Отдача: не определено

Загрузка: не определено

Нажми

Создавать темы 12-Фев-2019 11:54

[Цитировать]

Информация о фильме- Название: Как не стать президентом
Оригинальное название: The Front Runner
Год выхода: 2018
Жанр: Драма, биография, история
Режиссер: Джейсон Рейтмен
В ролях: Хью Джекман, Вера Фармига, Джонатан Кимбл Симмонс, Марк О’Брайэн, Молли Эфраим, Крис Кой, Алекс Карповски, Джош Бренер, Томми Дьюи, Кейтлин Дивер-О фильме:-На президентских выборах в США в 1988 году у сенатора Гэри Харта были все шансы занять кресло в Белом доме, однако один его проступок — супружеская измена — пустил его политическую карьеру под откос и заставил покинуть президентскую гонку. Немаловажную роль в этой истории взлета и падения, повлиявшей не только на американскую, но и на мировую политику, сыграли журналисты.- -Страна: США
Студия: BRON Studios, Creative Wealth Media Finance, Right of Way Films
Продолжительность: 01:53:31
Перевод: Профессиональный мнгоголосый | iTunes-Файл-Кодек: x.264
Качество: BDRip 1080p | The.Front.Runner.2018.1080p.BluRay.x264-DRONES
Видео: MPEG-4 AVC, 8509 Kбит/с, 1920x1040, 23.976 кадр/с
Аудио #1: Русский ( АС3, 6ch, 384 Кбит/с, 48.0 KHz) Профессиональный (многоголосый, закадровый) iTunes
Аудио #2: Английский ( DTS, 6ch, 1509 Кбит/с, 48.0 KHz)
Субтитры: английские-

MediaInfo

-Источник: The.Front.Runner.2018.1080p.BluRay.x264-DRONES
General
Unique ID : 175858890585296567485590083219414777057 (0x844D30B9E4797C7B8A6C62F2CDF6FCE1)
Complete name : The.Front.Runner.2018.BDRip.1080p.mkv
Format : Matroska
Format version : Version 4 / Version 2
File size : 8.25 GiB
Duration : 1 h 53 min
Overall bit rate : 10.4 Mb/s
Encoded date : UTC 2019-02-11 22:37:55
Writing application : mkvmerge v7.1.0 ('Good Love') 64bit built on Jul 27 2014 13:06:55
Writing library : libebml v1.3.0 + libmatroska v1.4.1
Video
ID : 1
Format : AVC
Format/Info : Advanced Video Codec
Format profile : [email protected]
Format settings, CABAC : Yes
Format settings, RefFrames : 4 frames
Codec ID : V_MPEG4/ISO/AVC
Duration : 1 h 53 min
Bit rate : 8 509 kb/s
Width : 1 920 pixels
Height : 1 040 pixels
Display aspect ratio : 1.85:1
Frame rate mode : Constant
Frame rate : 23.976 (24000/1001) FPS
Color space : YUV
Chroma subsampling : 4:2:0
Bit depth : 8 bits
Scan type : Progressive
Bits/(Pixel*Frame) : 0.178
Stream size : 6.74 GiB (82%)
Writing library : x264 core 157 r2935 545de2f
Encoding settings : cabac=1 / ref=4 / deblock=1:-3:-3 / analyse=0x3:0x113 / me=umh / subme=8 / psy=1 / psy_rd=1.00:0.00 / mixed_ref=1 / me_range=16 / chroma_me=1 / trellis=1 / 8x8dct=1 / cqm=0 / deadzone=21,11 / fast_pskip=1 / chroma_qp_offset=-2 / threads=30 / lookahead_threads=5 / sliced_threads=0 / nr=0 / decimate=1 / interlaced=0 / bluray_compat=0 / constrained_intra=0 / bframes=3 / b_pyramid=2 / b_adapt=1 / b_bias=0 / direct=3 / weightb=1 / open_gop=0 / weightp=2 / keyint=250 / keyint_min=23 / scenecut=40 / intra_refresh=0 / rc_lookahead=50 / rc=2pass / mbtree=1 / bitrate=8509 / ratetol=1.0 / qcomp=0.60 / qpmin=0 / qpmax=69 / qpstep=4 / cplxblur=20.0 / qblur=0.5 / ip_ratio=1.40 / aq=1:1.00
Language : English
Default : Yes
Forced : No
Audio #1
ID : 2
Format : AC-3
Format/Info : Audio Coding 3
Format settings, Endianness : Big
Codec ID : A_AC3
Duration : 1 h 53 min
Bit rate mode : Constant
Bit rate : 384 kb/s
Channel(s) : 6 channels
Channel positions : Front: L C R, Side: L R, LFE
Sampling rate : 48.0 kHz
Frame rate : 31.250 FPS (1536 SPF)
Bit depth : 16 bits
Compression mode : Lossy
Stream size : 312 MiB (4%)
Title : MVO
Language : Russian
Service kind : Complete Main
Default : Yes
Forced : No
Audio #2
ID : 3
Format : DTS
Format/Info : Digital Theater Systems
Mode : 16
Format settings, Endianness : Big
Codec ID : A_DTS
Duration : 1 h 53 min
Bit rate mode : Constant
Bit rate : 1 509 kb/s
Channel(s) : 6 channels
Channel positions : Front: L C R, Side: L R, LFE
Sampling rate : 48.0 kHz
Frame rate : 93.750 FPS (512 SPF)
Bit depth : 24 bits
Compression mode : Lossy
Stream size : 1.20 GiB (15%)
Language : English
Default : No
Forced : No
Text #1
ID : 4
Format : UTF-8
Codec ID : S_TEXT/UTF8
Codec ID/Info : UTF-8 Plain Text
Duration : 1 h 44 min
Bit rate : 91 b/s
Count of elements : 1939
Stream size : 70.3 KiB (0%)
Language : English
Default : No
Forced : No
Text #2
ID : 5
Format : UTF-8
Codec ID : S_TEXT/UTF8
Codec ID/Info : UTF-8 Plain Text
Duration : 1 h 47 min
Bit rate : 102 b/s
Count of elements : 2212
Stream size : 80.5 KiB (0%)
Title : SDH
Language : English
Default : No
Forced : No
Menu
00:00:00.000 : en:00:00:00.000
00:08:02.607 : en:00:08:02.607
00:14:56.813 : en:00:14:56.813
00:19:32.505 : en:00:19:32.505
00:27:22.933 : en:00:27:22.933
00:34:31.945 : en:00:34:31.945
00:40:30.428 : en:00:40:30.428
00:45:55.962 : en:00:45:55.962
00:51:07.314 : en:00:51:07.314
00:58:52.112 : en:00:58:52.112
01:09:05.933 : en:01:09:05.933
01:15:57.762 : en:01:15:57.762
01:22:31.655 : en:01:22:31.655
01:29:28.738 : en:01:29:28.738
01:34:40.508 : en:01:34:40.508
01:41:31.919 : en:01:41:31.919-
-

Скриншоты

--
-
[free-tor.info].t19378.torrent 
Торрент: Зарегистрирован [ 2019-02-12 11:54 ] · B77465BE40DA94A2250459170D376D0B2559228E

Скачать .torrent

Скачать .torrent

22 KB

Статус: проверено
.torrent скачан: 9 раз
Размер: 8,25 GB
Правила
Похожие темы

[Профиль] [ЛС]
Показать сообщения:    
Ответить на тему

Текущее время: 16-Июл 04:07

Часовой пояс: UTC + 4



Вы не можете начинать темы
Вы не можете отвечать на сообщения
Вы не можете редактировать свои сообщения
Вы не можете удалять свои сообщения
Вы не можете голосовать в опросах
Вы не можете прикреплять файлы к сообщениям
Вы можете скачивать файлы
Анализ веб сайтов Яндекс.Метрика