Можно только представить / I Can Only Imagine (Эндрю Эрвин, Джон Эрвин) [2018, драма, семейный, BDRip 1080p от селезень | Лицензия]

Ответить на тему
Статистика раздачи [Обновить пиров]
Размер:  11,17 GB   |    Зарегистрирован:  5 месяцев 4 дня   |    .torrent скачан:  6 раз
Сидов:  66  [  0 KB/s  ]   Личеров:  14  [  0 KB/s  ]   Подробная статистика пиров
 
   
 
 
Автор Сообщение

Skorp10n ®

Оффлайн

 Активный раздающий 1 Активный раздающий 2
 Активный релизер 1000 Активный релизер 1500 Активный релизер 2000 Активный релизер 250 Активный релизер 3000 Активный релизер 500 Активный релизер 5000 Активный релизер Фильмов (1000) Активный релизер Фильмов (300) Активный релизер Фильмов (600) Активный Форумчанин 1 Активный Форумчанин 2 Активный Форумчанин 3 Активный Форумчанин 4 Друг трекера Карма 1000 Карма 1500 Карма 3000 Карма 500 Меценат Ни дня без новостей Орденосец 1 степени Орденосец 2 степени Орденосец 3 степени Почетный орденосец Почетный репортер С Новым 2016 Годом! С Новым 2017 Годом! С Новым 2018 Годом! С Новым 2019 Годом! Супер Мега Контер Квейк ТОП-10

Пол: Мужской

Стаж: 3 года 11 месяцев

Наличие запрета:

Сообщений: 10847

Откуда: Free-Tor.com

Отдача: не определено

Загрузка: не определено

Нажми

Создавать темы 12-Фев-2019 18:19

[Цитировать]

Информация о фильме- Название: Можно только представить
Оригинальное название: I Can Only Imagine
Год выхода: 2018
Жанр: Драма, семейный
Режиссер(ы): Эндрю Эрвин, Джон Эрвин
В ролях: Дэннис Куэйд, Дж. Майкл Финли, Броди Роуз, Трэйси Эдкинс, Эрик Ашлок, Джина Д. Брюэр, О'Шей Брукс, Джейсон Бёрки, Тэген Бернс- -О фильме: История рождения одноименной песни группы MercyMe. Лидер команды посвятил эту песню о вере, любви и прощении своему отцу, не подозревая, что скоро она облетит весь мир, станет платиновым хитом, а главное — подарит надежду миллионам людей.-Страна: США
Студия: Kevin Downes Productions, Mission Pictures International, City on a Hill Productions
Продолжительность: 01:50:20
Перевод: Дублированный | Лицензия R5-Качество: BDRip 1080p
Видео: MPEG-4 AVC, 1920x806, 12.5 Mbit/s, 23.976 fps
Звук:
Аудио #01: 48 kHz, AC3, 5.1, 448 Kbps | Дублированный | RUS |
Аудио #02: 48 kHz, DTS, 5.1, 1510 Kbps | Оригинал | ENG |
Субтитры: Английские-

Скриншоты

--
-

MI

-General
Unique ID : 209454792799051245671649694682864234492 (0x9D9386973496B3103A5DCB1229D12FFC)
Complete name : D:Video111I.Can.Only.Imagine.2018.Lic.BDRip.1080p.seleZen.mkv
Format : Matroska
Format version : Version 4
File size : 11.2 GiB
Duration : 1 h 50 min
Overall bit rate : 14.5 Mb/s
Movie name : I Can Only Imagine 2018 from селезень
Encoded date : UTC 2019-02-12 13:45:12
Writing application : mkvmerge v29.0.0 ('Like It Or Not') 64-bit
Writing library : libebml v1.3.6 + libmatroska v1.4.9
Video
ID : 1
Format : AVC
Format/Info : Advanced Video Codec
Format profile : [email protected]
Format settings : CABAC / 4 Ref Frames
Format settings, CABAC : Yes
Format settings, ReFrames : 4 frames
Codec ID : V_MPEG4/ISO/AVC
Duration : 1 h 50 min
Bit rate : 12.5 Mb/s
Width : 1 920 pixels
Height : 806 pixels
Display aspect ratio : 2.40:1
Frame rate mode : Constant
Frame rate : 23.976 (24000/1001) FPS
Color space : YUV
Chroma subsampling : 4:2:0
Bit depth : 8 bits
Scan type : Progressive
Bits/(Pixel*Frame) : 0.338
Stream size : 9.66 GiB (86%)
Writing library : x264 core 155 r2867+74 66b5600 t_mod_Custom_2 [[email protected] X86_64]
Encoding settings : cabac=1 / ref=4 / deblock=1:-3:-3 / analyse=0x3:0x113 / me=umh / subme=10 / psy=1 / fade_compensate=0.00 / psy_rd=0.90:0.10 / mixed_ref=1 / me_range=48 / chroma_me=1 / trellis=2 / 8x8dct=1 / cqm=0 / deadzone=21,11 / fast_pskip=0 / chroma_qp_offset=-2 / threads=18 / lookahead_threads=3 / sliced_threads=0 / nr=0 / decimate=1 / interlaced=0 / bluray_compat=0 / constrained_intra=0 / fgo=0 / bframes=8 / b_pyramid=2 / b_adapt=2 / b_bias=0 / direct=3 / weightb=1 / open_gop=0 / weightp=2 / keyint=250 / keyint_min=23 / scenecut=40 / intra_refresh=0 / rc_lookahead=40 / rc=crf / mbtree=0 / crf=20.0000 / qcomp=0.70 / qpmin=0:0:0 / qpmax=69:69:69 / qpstep=4 / vbv_maxrate=35000 / vbv_bufsize=35000 / crf_max=0.0 / nal_hrd=none / filler=0 / ip_ratio=1.40 / pb_ratio=1.30 / aq=3:0.90 / aq-sensitivity=10.00 / aq-factor=1.00:1.00:1.00 / aq2=0 / aq3=2:[0.50:0.50]:[0.50:0.50]:[0.50:0.50]:[0.50:0.50] / aq3-sensitivity=10.00 / aq3-factor=[1.00:1.00]:[1.00:1.00]:[1.00:1.00] / aq3-boundary=192:64:24
Language : English
Default : Yes
Forced : No
Color range : Limited
Matrix coefficients : BT.709
Audio #1
ID : 2
Format : AC-3
Format/Info : Audio Coding 3
Commercial name : Dolby Digital
Codec ID : A_AC3
Duration : 1 h 50 min
Bit rate mode : Constant
Bit rate : 448 kb/s
Channel(s) : 6 channels
Channel layout : L R C LFE Ls Rs
Sampling rate : 48.0 kHz
Frame rate : 31.250 FPS (1536 SPF)
Bit depth : 16 bits
Compression mode : Lossy
Stream size : 353 MiB (3%)
Title : Dub [License] - R5 Парадайз
Language : Russian
Service kind : Complete Main
Default : Yes
Forced : Yes
Audio #2
ID : 3
Format : DTS
Format/Info : Digital Theater Systems
Codec ID : A_DTS
Duration : 1 h 50 min
Bit rate mode : Constant
Bit rate : 1 509 kb/s
Channel(s) : 6 channels
Channel layout : C L R Ls Rs LFE
Sampling rate : 48.0 kHz
Frame rate : 93.750 FPS (512 SPF)
Bit depth : 24 bits
Compression mode : Lossy
Stream size : 1.16 GiB (10%)
Title : Original
Language : English
Default : No
Forced : No
Text
ID : 4
Format : UTF-8
Codec ID : S_TEXT/UTF8
Codec ID/Info : UTF-8 Plain Text
Duration : 1 h 44 min
Bit rate : 52 b/s
Count of elements : 1226
Stream size : 40.1 KiB (0%)
Title : Full
Language : English
Default : No
Forced : No
Menu
00:00:00.000 : en:00:00:00.000
00:08:27.841 : en:00:08:27.841
00:14:29.869 : en:00:14:29.869
00:21:22.281 : en:00:21:22.281
00:28:10.689 : en:00:28:10.689
00:36:22.180 : en:00:36:22.180
00:44:25.663 : en:00:44:25.663
00:52:21.138 : en:00:52:21.138
01:01:10.667 : en:01:01:10.667
01:09:12.148 : en:01:09:12.148
01:13:46.422 : en:01:13:46.422
01:22:25.941 : en:01:22:25.941
01:26:10.165 : en:01:26:10.165
01:34:16.651 : en:01:34:16.651
01:41:24.078 : en:01:41:24.078
01:45:43.337 : en:01:45:43.337-
-Релиз от: -
[free-tor.info].t19392.torrent 
Торрент: Зарегистрирован [ 2019-02-12 18:19 ] · 92762CFA4FD9100F861477D748DB60FF011FAEB4

Скачать .torrent

Скачать .torrent

16 KB

Статус: проверено
.torrent скачан: 6 раз
Размер: 11,17 GB
Правила
Похожие темы

[Профиль] [ЛС]
Показать сообщения:    
Ответить на тему

Текущее время: 17-Июл 03:00

Часовой пояс: UTC + 4



Вы не можете начинать темы
Вы не можете отвечать на сообщения
Вы не можете редактировать свои сообщения
Вы не можете удалять свои сообщения
Вы не можете голосовать в опросах
Вы не можете прикреплять файлы к сообщениям
Вы можете скачивать файлы
Анализ веб сайтов Яндекс.Метрика