Жил-был Дэдпул / Once Upon A Deadpool (Дэвид Литч) [2018, комедия, боевик, фантастика, BDRip 1080p от селезень | iTunes]

Ответить на тему
Статистика раздачи [Обновить пиров]
Размер:  11,53 GB   |    Зарегистрирован:  5 месяцев 2 дня   |    .torrent скачан:  17 раз
Сидов:  2079  [  0 KB/s  ]   Личеров:  174  [  0 KB/s  ]   Подробная статистика пиров
 
   
 
 
Автор Сообщение

Skorp10n ®

Оффлайн

 Активный раздающий 1 Активный раздающий 2
 Активный релизер 1000 Активный релизер 1500 Активный релизер 2000 Активный релизер 250 Активный релизер 3000 Активный релизер 500 Активный релизер 5000 Активный релизер Фильмов (1000) Активный релизер Фильмов (300) Активный релизер Фильмов (600) Активный Форумчанин 1 Активный Форумчанин 2 Активный Форумчанин 3 Активный Форумчанин 4 Друг трекера Карма 1000 Карма 1500 Карма 3000 Карма 500 Меценат Ни дня без новостей Орденосец 1 степени Орденосец 2 степени Орденосец 3 степени Почетный орденосец Почетный репортер С Новым 2016 Годом! С Новым 2017 Годом! С Новым 2018 Годом! С Новым 2019 Годом! Супер Мега Контер Квейк ТОП-10

Пол: Мужской

Стаж: 3 года 11 месяцев

Наличие запрета:

Сообщений: 10847

Откуда: Free-Tor.com

Отдача: не определено

Загрузка: не определено

Нажми

Создавать темы 14-Фев-2019 11:47

[Цитировать]

Информация о фильме- Название: Жил-был Дэдпул
Оригинальное название: Once Upon A Deadpool
Год выхода: 2018
Жанр: Комедия, боевик, фантастика
Режиссер: Дэвид Литч
В ролях: Райан Рейнольдс, Джош Бролин, Морена Баккарин, Брианна Хилдебранд, ТиДжей Миллер--О фильме: Смягчённая версия фильма «Дэдпул 2» о наемнике-мутанте и его бесшабашной команде, которая встаёт на защиту одного проблемного подростка.-Страна: США
Продолжительность: 01:57:41
Перевод: Дублированный | iTunes-Качество: BDRip 1080p
Видео: MPEG-4 AVC, 1920x804, 13 Mbit/s, 23.976 fps
Звук:
Аудио #01: 48 kHz, AC3, 5.1, 384 Kbps | iTunes | RUS |
Аудио #02: 48 kHz, AC3, 5.1, 640 Kbps | Оригинал | ENG |
Субтитры: Русские (Forced, full), английские-

Скриншоты

--
-

MI

-General
Unique ID : 256205690702587157374461092422493163625 (0xC0BF6BD17259979CEFEE6234728C5069)
Complete name : D:Video111Deadpool.2.2018.Once.Upon.a.Deadpool.BDRip.1080p.seleZen.mkv
Format : Matroska
Format version : Version 4
File size : 11.5 GiB
Duration : 1 h 57 min
Overall bit rate : 14.0 Mb/s
Movie name : Once Upon A Deadpool 2018 from селезень
Encoded date : UTC 2019-02-14 06:47:26
Writing application : mkvmerge v29.0.0 ('Like It Or Not') 64-bit
Writing library : libebml v1.3.6 + libmatroska v1.4.9
Video
ID : 1
Format : AVC
Format/Info : Advanced Video Codec
Format profile : [email protected]
Format settings : CABAC / 5 Ref Frames
Format settings, CABAC : Yes
Format settings, ReFrames : 5 frames
Codec ID : V_MPEG4/ISO/AVC
Duration : 1 h 57 min
Bit rate : 13.0 Mb/s
Width : 1 920 pixels
Height : 804 pixels
Display aspect ratio : 2.40:1
Frame rate mode : Constant
Frame rate : 23.976 (24000/1001) FPS
Color space : YUV
Chroma subsampling : 4:2:0
Bit depth : 8 bits
Scan type : Progressive
Bits/(Pixel*Frame) : 0.351
Stream size : 10.7 GiB (93%)
Title : iFT
Writing library : x264 core 142 r2431+42 c69a006 tMod [[email protected] X86_64]
Encoding settings : cabac=1 / ref=5 / deblock=1:-3:-3 / analyse=0x3:0x133 / me=umh / subme=11 / psy=1 / fade_compensate=0.00 / psy_rd=1.05:1.05 / mixed_ref=1 / me_range=48 / chroma_me=1 / trellis=2 / 8x8dct=1 / cqm=0 / deadzone=21,11 / fast_pskip=0 / chroma_qp_offset=-4 / threads=16 / lookahead_threads=2 / sliced_threads=0 / nr=0 / decimate=0 / interlaced=0 / bluray_compat=0 / constrained_intra=0 / fgo=0 / bframes=8 / b_pyramid=2 / b_adapt=2 / b_bias=0 / direct=3 / weightb=1 / open_gop=0 / weightp=2 / keyint=240 / keyint_min=23 / scenecut=40 / intra_refresh=0 / rc_lookahead=240 / rc=2pass / mbtree=0 / bitrate=13000 / ratetol=0.9 / qcomp=0.60 / qpmin=0:0:0 / qpmax=69:69:69 / qpstep=4 / cplxblur=20.0 / qblur=0.5 / vbv_maxrate=62500 / vbv_bufsize=78125 / nal_hrd=none / filler=0 / ip_ratio=1.30 / pb_ratio=1.20 / aq=2:0.60 / aq-sensitivity=10.00 / aq-factor=1.00:1.00:1.00 / aq2=0 / aq3=0
Language : English
Default : Yes
Forced : No
Color range : Limited
Color primaries : BT.709
Transfer characteristics : BT.709
Matrix coefficients : BT.709
Audio #1
ID : 2
Format : AC-3
Format/Info : Audio Coding 3
Commercial name : Dolby Digital
Codec ID : A_AC3
Duration : 1 h 57 min
Bit rate mode : Constant
Bit rate : 384 kb/s
Channel(s) : 6 channels
Channel layout : L R C LFE Ls Rs
Sampling rate : 48.0 kHz
Frame rate : 31.250 FPS (1536 SPF)
Bit depth : 16 bits
Compression mode : Lossy
Stream size : 323 MiB (3%)
Title : iTunes
Language : Russian
Service kind : Complete Main
Default : Yes
Forced : Yes
Audio #2
ID : 3
Format : AC-3
Format/Info : Audio Coding 3
Commercial name : Dolby Digital
Codec ID : A_AC3
Duration : 1 h 57 min
Bit rate mode : Constant
Bit rate : 640 kb/s
Channel(s) : 6 channels
Channel layout : L R C LFE Ls Rs
Sampling rate : 48.0 kHz
Frame rate : 31.250 FPS (1536 SPF)
Bit depth : 16 bits
Compression mode : Lossy
Stream size : 539 MiB (5%)
Title : Original
Language : English
Service kind : Complete Main
Default : No
Forced : No
Text #1
ID : 4
Format : UTF-8
Codec ID : S_TEXT/UTF8
Codec ID/Info : UTF-8 Plain Text
Duration : 1 h 56 min
Bit rate : 0 b/s
Count of elements : 15
Stream size : 668 Bytes (0%)
Title : Forced
Language : Russian
Default : Yes
Forced : Yes
Text #2
ID : 5
Format : UTF-8
Codec ID : S_TEXT/UTF8
Codec ID/Info : UTF-8 Plain Text
Duration : 1 h 56 min
Bit rate : 104 b/s
Count of elements : 1528
Stream size : 89.4 KiB (0%)
Title : Full
Language : Russian
Default : No
Forced : No
Text #3
ID : 6
Format : UTF-8
Codec ID : S_TEXT/UTF8
Codec ID/Info : UTF-8 Plain Text
Duration : 1 h 56 min
Bit rate : 78 b/s
Count of elements : 2310
Stream size : 67.4 KiB (0%)
Title : SDH
Language : English
Default : No
Forced : No
Menu
00:00:00.000 : :Capítulo 01
00:04:07.205 : :Capítulo 02
00:06:13.456 : :Capítulo 03
00:11:31.524 : :Capítulo 04
00:15:12.662 : :Capítulo 05
00:18:35.323 : :Capítulo 06
00:20:51.834 : :Capítulo 07
00:24:33.555 : :Capítulo 08
00:25:54.928 : :Capítulo 09
00:28:19.072 : :Capítulo 10
00:32:40.876 : :Capítulo 11
00:36:23.598 : :Capítulo 12
00:39:48.219 : :Capítulo 13
00:42:27.086 : :Capítulo 14
00:45:29.518 : :Capítulo 15
00:49:04.942 : :Capítulo 16
00:52:19.762 : :Capítulo 17
00:54:50.662 : :Capítulo 18
00:56:33.557 : :Capítulo 19
00:58:21.123 : :Capítulo 20
01:03:27.053 : :Capítulo 21
01:07:02.810 : :Capítulo 22
01:12:23.756 : :Capítulo 23
01:17:15.756 : :Capítulo 24
01:20:19.314 : :Capítulo 25
01:23:45.729 : :Capítulo 26
01:25:43.430 : :Capítulo 27
01:28:30.889 : :Capítulo 28
01:29:58.393 : :Capítulo 29
01:31:31.736 : :Capítulo 30
01:33:04.204 : :Capítulo 31
01:36:22.443 : :Capítulo 32
01:39:00.893 : :Capítulo 33
01:42:45.368 : :Capítulo 34
01:46:28.799 : :Capítulo 35
01:56:51.004 : :Capítulo 36-
-Релиз от: -
[free-tor.info].t19409.torrent 
Торрент: Зарегистрирован [ 2019-02-14 11:47 ] · 4AA80BC6F25F757A7A577F0A1BAD8A656D2E61C5

Скачать .torrent

Скачать .torrent

16 KB

Статус: проверено
.torrent скачан: 17 раз
Размер: 11,53 GB
Правила
Volodymyr(14-Фев-19), Алексей Портнов(15-Фев-19)
Похожие темы

[Профиль] [ЛС]
Показать сообщения:    
Ответить на тему

Текущее время: 17-Июл 02:27

Часовой пояс: UTC + 4



Вы не можете начинать темы
Вы не можете отвечать на сообщения
Вы не можете редактировать свои сообщения
Вы не можете удалять свои сообщения
Вы не можете голосовать в опросах
Вы не можете прикреплять файлы к сообщениям
Вы можете скачивать файлы
Анализ веб сайтов Яндекс.Метрика