Ральф против интернета / Ralph Breaks the Internet (Фил Джонстон, Рич Мур) [2018, мультфильм, фэнтези, комедия, приключения, семейный, полнометражный, WEB-DL 1080p от селезень | iTunes]

Ответить на тему
Статистика раздачи [Обновить пиров]
Размер:  4,17 GB   |    Зарегистрирован:  5 месяцев   |    .torrent скачан:  26 раз
Сидов:  3823  [  0 KB/s  ]   Личеров:  94  [  0 KB/s  ]   Подробная статистика пиров
 
   
 
 
Автор Сообщение

Skorp10n ®

Оффлайн

 Активный раздающий 1 Активный раздающий 2
 Активный релизер 1000 Активный релизер 1500 Активный релизер 2000 Активный релизер 250 Активный релизер 3000 Активный релизер 500 Активный релизер 5000 Активный релизер Фильмов (1000) Активный релизер Фильмов (300) Активный релизер Фильмов (600) Активный Форумчанин 1 Активный Форумчанин 2 Активный Форумчанин 3 Активный Форумчанин 4 Друг трекера Карма 1000 Карма 1500 Карма 3000 Карма 500 Меценат Ни дня без новостей Орденосец 1 степени Орденосец 2 степени Орденосец 3 степени Почетный орденосец Почетный репортер С Новым 2016 Годом! С Новым 2017 Годом! С Новым 2018 Годом! С Новым 2019 Годом! Супер Мега Контер Квейк ТОП-10

Пол: Мужской

Стаж: 3 года 11 месяцев

Наличие запрета:

Сообщений: 10847

Откуда: Free-Tor.com

Отдача: не определено

Загрузка: не определено

Нажми

Создавать темы 15-Фев-2019 19:18

[Цитировать]

Информация о фильме- Название: Ральф против интернета
Оригинальное название: Ralph Breaks the Internet
Год выхода: 2018
Жанр: Мультфильм, фэнтези, комедия, приключения, семейный, полнометражный
Режиссер: Фил Джонстон, Рич Мур
В ролях: Джон С. Райлли, Сара Силверман, Галь Гадот, Тараджи П. Хенсон, Джек МакБрайер, Джейн Линч, Алан Тьюдик, Альфред Молина, Эд О`Нил, Шон Джамброун- -О фильме: На этот раз Ральф и Ванилопа фон Кекс выйдут за пределы зала игровых автоматов и отправятся покорять бескрайние просторы интернета, который может и не выдержать сокрушительного обаяния громилы.-Страна: США
Студия: Walt Disney Animation Studios, Walt Disney Pictures
Продолжительность: 01:53:25
Перевод: Дублированный | iTunes-Качество: WEB-DL 1080p
Видео: MPEG-4 AVC, 1920x804, 4493 Kbit/s, 23.976 fps
Звук:
Аудио #01: 48 kHz, AC3, 5.1, 384 Kbps | iTunes | RUS |
Аудио #02: 48 kHz, AC3, 5.1, 384 Kbps | Оригинал | ENG |
Субтитры: Русские (Full), английские-

Скриншоты

--
-

MI

-General
Unique ID : 26220170242065433385331192931391209767 (0x13B9D233B71C5A65C5C3F5C35EB58127)
Complete name : D:Video111Ralph Breaks the Internet.2018.WEB-DL.1080p.seleZen.mkv
Format : Matroska
Format version : Version 4
File size : 4.17 GiB
Duration : 1 h 53 min
Overall bit rate : 5 259 kb/s
Movie name : Ralph Breaks the Internet 2018 from селезень
Encoded date : UTC 2019-02-15 03:09:00
Writing application : mkvmerge v29.0.0 ('Like It Or Not') 64-bit
Writing library : libebml v1.3.6 + libmatroska v1.4.9
Video
ID : 1
Format : AVC
Format/Info : Advanced Video Codec
Format profile : [email protected]
Format settings : CABAC / 5 Ref Frames
Format settings, CABAC : Yes
Format settings, ReFrames : 5 frames
Codec ID : V_MPEG4/ISO/AVC
Duration : 1 h 53 min
Bit rate : 4 493 kb/s
Width : 1 920 pixels
Height : 804 pixels
Display aspect ratio : 2.40:1
Frame rate mode : Constant
Frame rate : 23.976 FPS
Color space : YUV
Chroma subsampling : 4:2:0
Bit depth : 8 bits
Scan type : Progressive
Bits/(Pixel*Frame) : 0.121
Stream size : 3.56 GiB (85%)
Language : English
Default : Yes
Forced : No
Color range : Limited
Color primaries : BT.709
Transfer characteristics : BT.709
Matrix coefficients : BT.709
Audio #1
ID : 2
Format : AC-3
Format/Info : Audio Coding 3
Commercial name : Dolby Digital
Codec ID : A_AC3
Duration : 1 h 53 min
Bit rate mode : Constant
Bit rate : 384 kb/s
Channel(s) : 6 channels
Channel layout : L R C LFE Ls Rs
Sampling rate : 48.0 kHz
Frame rate : 31.250 FPS (1536 SPF)
Bit depth : 16 bits
Compression mode : Lossy
Stream size : 310 MiB (7%)
Title : iTunes
Language : Russian
Service kind : Complete Main
Default : Yes
Forced : Yes
Audio #2
ID : 3
Format : AC-3
Format/Info : Audio Coding 3
Commercial name : Dolby Digital
Codec ID : A_AC3
Duration : 1 h 52 min
Bit rate mode : Constant
Bit rate : 384 kb/s
Channel(s) : 6 channels
Channel layout : L R C LFE Ls Rs
Sampling rate : 48.0 kHz
Frame rate : 31.250 FPS (1536 SPF)
Bit depth : 16 bits
Compression mode : Lossy
Stream size : 309 MiB (7%)
Title : Original
Language : English
Service kind : Complete Main
Default : No
Forced : No
Text #1
ID : 4
Format : UTF-8
Codec ID : S_TEXT/UTF8
Codec ID/Info : UTF-8 Plain Text
Duration : 1 h 51 min
Bit rate : 122 b/s
Count of elements : 1877
Stream size : 101 KiB (0%)
Title : Full
Language : Russian
Default : No
Forced : No
Text #2
ID : 5
Format : UTF-8
Codec ID : S_TEXT/UTF8
Codec ID/Info : UTF-8 Plain Text
Duration : 1 h 51 min
Bit rate : 77 b/s
Count of elements : 1886
Stream size : 63.1 KiB (0%)
Title : Full
Language : English
Default : No
Forced : No
Text #3
ID : 6
Format : UTF-8
Codec ID : S_TEXT/UTF8
Codec ID/Info : UTF-8 Plain Text
Duration : 1 h 51 min
Bit rate : 90 b/s
Count of elements : 2473
Stream size : 73.8 KiB (0%)
Title : SDH
Language : English
Default : No
Forced : No
Menu
00:00:00.000 : en:Opening
00:04:09.000 : en:Plug-in Alert
00:11:00.000 : en:Felix's New Family
00:17:29.000 : en:I Give You the Internet
00:23:43.000 : en:eBay
00:27:54.000 : en:Get Rich Playing Video Games
00:34:19.000 : en:Slaughter Race
00:41:40.000 : en:Welcome to BuzzzTube
00:51:27.000 : en:Ohmydisney.com
00:58:04.000 : en:First Rule of The Internet
01:01:51.000 : en:Decisions, Decisions
01:06:16.000 : en:You're Always Welcome Here
01:12:31.000 : en:Ready To Race?
01:19:08.000 : en:What's Wrong With The Internet?
01:27:24.000 : en:Catch Me If You Can
01:38:29.000 : en:End Credits-
-Релиз от: -
[free-tor.info].t19429.torrent 
Торрент: Зарегистрирован [ 2019-02-15 19:18 ] · 30C9A29B7BBB64FC84F3650906801658B006FCC9

Скачать .torrent

Скачать .torrent

7 KB

Статус: проверено
.torrent скачан: 26 раз
Размер: 4,17 GB
Правила
Похожие темы

[Профиль] [ЛС]
Показать сообщения:    
Ответить на тему

Текущее время: 16-Июл 03:54

Часовой пояс: UTC + 4



Вы не можете начинать темы
Вы не можете отвечать на сообщения
Вы не можете редактировать свои сообщения
Вы не можете удалять свои сообщения
Вы не можете голосовать в опросах
Вы не можете прикреплять файлы к сообщениям
Вы можете скачивать файлы
Анализ веб сайтов Яндекс.Метрика