Последняя миссия / Attrition (Матье Вешлер) [2018, боевик, WEB-DL 1080p | iTunes]

Ответить на тему
Статистика раздачи [Обновить пиров]
Размер:  3,05 GB   |    Зарегистрирован:  5 месяцев   |    .torrent скачан:  12 раз
Сидов:  157  [  0 KB/s  ]   Личеров:  5  [  0 KB/s  ]   Подробная статистика пиров
 
   
 
 
Автор Сообщение

Skorp10n ®

Оффлайн

 Активный раздающий 1 Активный раздающий 2
 Активный релизер 1000 Активный релизер 1500 Активный релизер 2000 Активный релизер 250 Активный релизер 3000 Активный релизер 500 Активный релизер 5000 Активный релизер Фильмов (1000) Активный релизер Фильмов (300) Активный релизер Фильмов (600) Активный Форумчанин 1 Активный Форумчанин 2 Активный Форумчанин 3 Активный Форумчанин 4 Друг трекера Карма 1000 Карма 1500 Карма 3000 Карма 500 Меценат Ни дня без новостей Орденосец 1 степени Орденосец 2 степени Орденосец 3 степени Почетный орденосец Почетный репортер С Новым 2016 Годом! С Новым 2017 Годом! С Новым 2018 Годом! С Новым 2019 Годом! Супер Мега Контер Квейк ТОП-10

Пол: Мужской

Стаж: 3 года 11 месяцев

Наличие запрета:

Сообщений: 10847

Откуда: Free-Tor.com

Отдача: не определено

Загрузка: не определено

Нажми

Создавать темы 15-Фев-2019 20:24

[Цитировать]

Информация о фильме- Название: Последняя миссия
Оригинальное название: Attrition
Год выхода: 2018
Жанр: Боевик
Режиссер: Матье Вешлер
В ролях: Стивен Сигал, Руди Янгблад, Витхая Пансрингарм, Луис Фань, Кат Инккарат, Джеймс П. Беннетт, Байра Бела, Чарли Юн, Танапол Чуксридаю, Кан Юй-О фильме:-Бывший спецназовец, который так и не смог начать мирную жизнь, стал борцом за справедливость. Когда-то он обучался кунг-фу у известного мастера и стал его лучшим учеником. Теперь он использует свои навыки в борьбе с преступностью. Но даже он устал от постоянной борьбы и решил на время поселиться в тихой спокойной деревушке. Владея знаниями в медицине, он лечит местных жителей. Но однажды в деревне появляется группа вооруженных людей, которым приказано доставить боссу девушку, обладающую даром исцеления. Теперь ему нужно сделать все возможное, чтобы защитить ее...- -Страна: Таиланд, Гонконг, Великобритания, США
Студия: Sivko Partners, Steamroller Productions
Продолжительность: 01:25:10
Перевод: Профессиональный многоголосый | iTunes-Файл-Кодек: AVC
Качество: WEB-DL 1080p | Attrition.2018.1080p.WEB-DL.DD5.1.H264-FGT
Видео: MPEG-4 AVC, 4556 Kбит/с, 1920x816, 23.976 кадр/с
Аудио #1: Русский ( АС3, 2ch, 192 Кбит/с, 48.0 KHz) Профессиональный (многоголосый, закадровый) iTunes
Аудио #2: Английский ( АС3, 6ch, 384 Кбит/с, 48.0 KHz)
Субтитры: английские-

MediaInfo

-Источник: Attrition.2018.1080p.WEB-DL.DD5.1.H264-FGT
General
Unique ID : 243711274166726517963528564580899178265 (0xB7591585A0AFB5E0948FD82C61A54719)
Complete name : Attrition.2018.WEB-DL.1080p.mkv
Format : Matroska
Format version : Version 4 / Version 2
File size : 3.05 GiB
Duration : 1 h 25 min
Overall bit rate : 5 134 kb/s
Encoded date : UTC 2019-02-14 20:57:04
Writing application : mkvmerge v7.1.0 ('Good Love') 64bit built on Jul 27 2014 13:06:55
Writing library : libebml v1.3.0 + libmatroska v1.4.1
Video
ID : 1
Format : AVC
Format/Info : Advanced Video Codec
Format profile : [email protected]
Format settings, CABAC : Yes
Format settings, RefFrames : 5 frames
Codec ID : V_MPEG4/ISO/AVC
Duration : 1 h 25 min
Bit rate : 4 556 kb/s
Width : 1 920 pixels
Height : 816 pixels
Display aspect ratio : 2.35:1
Frame rate mode : Constant
Frame rate : 23.976 (24000/1001) FPS
Color space : YUV
Chroma subsampling : 4:2:0
Bit depth : 8 bits
Scan type : Progressive
Bits/(Pixel*Frame) : 0.121
Stream size : 2.71 GiB (89%)
Language : English
Default : Yes
Forced : No
Color range : Limited
Color primaries : BT.709
Transfer characteristics : BT.709
Matrix coefficients : BT.709
Audio #1
ID : 2
Format : AC-3
Format/Info : Audio Coding 3
Format settings, Endianness : Big
Codec ID : A_AC3
Duration : 1 h 25 min
Bit rate mode : Constant
Bit rate : 192 kb/s
Channel(s) : 2 channels
Channel positions : Front: L R
Sampling rate : 48.0 kHz
Frame rate : 31.250 FPS (1536 SPF)
Bit depth : 16 bits
Compression mode : Lossy
Stream size : 117 MiB (4%)
Title : MVO | iTunes
Language : Russian
Service kind : Complete Main
Default : Yes
Forced : No
Audio #2
ID : 3
Format : AC-3
Format/Info : Audio Coding 3
Format settings, Endianness : Big
Codec ID : A_AC3
Duration : 1 h 25 min
Bit rate mode : Constant
Bit rate : 384 kb/s
Channel(s) : 6 channels
Channel positions : Front: L C R, Side: L R, LFE
Sampling rate : 48.0 kHz
Frame rate : 31.250 FPS (1536 SPF)
Bit depth : 16 bits
Compression mode : Lossy
Stream size : 234 MiB (7%)
Language : English
Service kind : Complete Main
Default : No
Forced : No
Text
ID : 4
Format : UTF-8
Codec ID : S_TEXT/UTF8
Codec ID/Info : UTF-8 Plain Text
Duration : 1 h 20 min
Bit rate : 35 b/s
Count of elements : 502
Stream size : 21.1 KiB (0%)
Language : English
Default : No
Forced : No
Menu
00:00:00.000 : en:00:00:00.000
00:05:42.050 : en:00:05:42.050
00:10:31.339 : en:00:10:31.339
00:14:46.135 : en:00:14:46.135
00:20:56.338 : en:00:20:56.338
00:24:30.678 : en:00:24:30.678
00:30:35.542 : en:00:30:35.542
00:39:01.548 : en:00:39:01.548
00:46:13.437 : en:00:46:13.437
00:52:18.218 : en:00:52:18.218
00:57:31.657 : en:00:57:31.657
01:02:13.104 : en:01:02:13.104
01:05:50.363 : en:01:05:50.363
01:10:24.971 : en:01:10:24.971
01:16:47.645 : en:01:16:47.645
01:21:26.715 : en:01:21:26.715-
-

Скриншоты

--
-
[free-tor.info].t19441.torrent 
Торрент: Зарегистрирован [ 2019-02-15 20:24 ] · 8666B247E4A340AE13A1F4F5824724CDC88840C3

Скачать .torrent

Скачать .torrent

16 KB

Статус: проверено
.torrent скачан: 12 раз
Размер: 3,05 GB
Правила
Похожие темы

[Профиль] [ЛС]
Показать сообщения:    
Ответить на тему

Текущее время: 16-Июл 04:01

Часовой пояс: UTC + 4



Вы не можете начинать темы
Вы не можете отвечать на сообщения
Вы не можете редактировать свои сообщения
Вы не можете удалять свои сообщения
Вы не можете голосовать в опросах
Вы не можете прикреплять файлы к сообщениям
Вы можете скачивать файлы
Анализ веб сайтов Яндекс.Метрика