Один король — одна Франция / Un peuple et son roi (Пьер Шоллер) [2018, драма, BDRip 1080p от селезень | iTunes]

Ответить на тему
Статистика раздачи [Обновить пиров]
Размер:  13,1 GB   |    Зарегистрирован:  4 месяца 27 дней   |    .torrent скачан:  11 раз
Сидов:  170  [  0 KB/s  ]   Личеров:  19  [  0 KB/s  ]   Подробная статистика пиров
 
   
 
 
Автор Сообщение

Skorp10n ®

Оффлайн

 Активный раздающий 1 Активный раздающий 2
 Активный релизер 1000 Активный релизер 1500 Активный релизер 2000 Активный релизер 250 Активный релизер 3000 Активный релизер 500 Активный релизер 5000 Активный релизер Фильмов (1000) Активный релизер Фильмов (300) Активный релизер Фильмов (600) Активный Форумчанин 1 Активный Форумчанин 2 Активный Форумчанин 3 Активный Форумчанин 4 Друг трекера Карма 1000 Карма 1500 Карма 3000 Карма 500 Меценат Ни дня без новостей Орденосец 1 степени Орденосец 2 степени Орденосец 3 степени Почетный орденосец Почетный репортер С Новым 2016 Годом! С Новым 2017 Годом! С Новым 2018 Годом! С Новым 2019 Годом! Супер Мега Контер Квейк ТОП-10

Пол: Мужской

Стаж: 3 года 11 месяцев

Наличие запрета:

Сообщений: 10847

Откуда: Free-Tor.com

Отдача: не определено

Загрузка: не определено

Нажми

Создавать темы 17-Фев-2019 17:07

[Цитировать]

Информация о фильме- Название: Один король — одна Франция
Оригинальное название: Un peuple et son roi
Год выхода: 2018
Жанр: Драма
Режиссер: Пьер Шоллер
В ролях: Гаспар Ульель, Адель Энель, Оливье Гурме, Луи Гаррель, Изиа Ижлен, Ноэми Львовски, Селин Саллетт, Дени Лаван, Жоан Либеро, Анджей Хыра- -О фильме: Масштабная историческая картина о Великой французской революции. В центре событий молодая пара влюбленных — Базиль и Франсуаза, судьбы которых буквально «намотало» на маховик истории.-Страна: Франция, Бельгия
Студия: Archipel 35, StudioCanal, France 3 Cinéma
Продолжительность: 02:01:56
Перевод: Дублированный | iTunes-Качество: BDRip 1080p
Видео: MPEG-4 AVC, 1920x1038, 13.5 Mbit/s, 23.976 fps
Звук:
Аудио #01: 48 kHz, AC3, 5.1, 384 Kbps | iTunes | RUS |
Аудио #02: 48 kHz, DTS, 5.1, 1510 Kbps | Оригинал | FRE | -

Скриншоты

--
-

MI

-General
Unique ID : 125231192232977278019277790655568548816 (0x5E36A67AAB441B4203D3BBF2024213D0)
Complete name : D:Video111Un.Peuple.et.Son.Roi.2018.BDRip.1080p.seleZen.mkv
Format : Matroska
Format version : Version 4
File size : 13.1 GiB
Duration : 2 h 1 min
Overall bit rate : 15.4 Mb/s
Movie name : Un Peuple et son roi (2017) from селезень
Encoded date : UTC 2019-02-16 16:49:59
Writing application : mkvmerge v29.0.0 ('Like It Or Not') 64-bit
Writing library : libebml v1.3.6 + libmatroska v1.4.9
Video
ID : 1
Format : AVC
Format/Info : Advanced Video Codec
Format profile : [email protected]
Format settings : CABAC / 4 Ref Frames
Format settings, CABAC : Yes
Format settings, ReFrames : 4 frames
Codec ID : V_MPEG4/ISO/AVC
Duration : 2 h 1 min
Bit rate : 13.5 Mb/s
Width : 1 920 pixels
Height : 1 038 pixels
Display aspect ratio : 1.85:1
Frame rate mode : Constant
Frame rate : 23.976 (24000/1001) FPS
Color space : YUV
Chroma subsampling : 4:2:0
Bit depth : 8 bits
Scan type : Progressive
Bits/(Pixel*Frame) : 0.283
Stream size : 11.5 GiB (88%)
Title : seleZen
Writing library : x264 core 148 r2705kMod 3f5ed56
Encoding settings : cabac=1 / ref=4 / deblock=1:-2:-2 / analyse=0x3:0x133 / me=umh / subme=10 / psy=1 / fade_compensate=0.00 / psy_rd=1.20:0.04 / mixed_ref=1 / me_range=24 / chroma_me=1 / trellis=2 / 8x8dct=1 / cqm=0 / deadzone=21,11 / fast_pskip=0 / chroma_qp_offset=-3 / threads=12 / lookahead_threads=2 / sliced_threads=0 / nr=0 / decimate=0 / interlaced=0 / bluray_compat=0 / constrained_intra=0 / fgo=0 / bframes=8 / b_pyramid=2 / b_adapt=2 / b_bias=0 / direct=3 / weightb=1 / open_gop=0 / weightp=2 / keyint=240 / keyint_min=23 / scenecut=40 / intra_refresh=0 / rc_lookahead=50 / rc=2pass / mbtree=0 / bitrate=13500 / ratetol=1.0 / qcomp=0.60 / qpmin=0 / qpmax=51 / qpstep=4 / cplxblur=20.0 / qblur=0.5 / vbv_maxrate=50000 / vbv_bufsize=62500 / nal_hrd=none / filler=0 / ip_ratio=1.40 / pb_ratio=1.30 / aq=3:0.80
Language : English
Default : Yes
Forced : No
Audio #1
ID : 2
Format : AC-3
Format/Info : Audio Coding 3
Commercial name : Dolby Digital
Codec ID : A_AC3
Duration : 2 h 1 min
Bit rate mode : Constant
Bit rate : 384 kb/s
Channel(s) : 6 channels
Channel layout : L R C LFE Ls Rs
Sampling rate : 48.0 kHz
Frame rate : 31.250 FPS (1536 SPF)
Bit depth : 16 bits
Compression mode : Lossy
Stream size : 335 MiB (2%)
Title : iTunes
Language : Russian
Service kind : Complete Main
Default : Yes
Forced : Yes
Audio #2
ID : 3
Format : DTS
Format/Info : Digital Theater Systems
Codec ID : A_DTS
Duration : 2 h 1 min
Bit rate mode : Constant
Bit rate : 1 509 kb/s
Channel(s) : 6 channels
Channel layout : C L R Ls Rs LFE
Sampling rate : 48.0 kHz
Frame rate : 93.750 FPS (512 SPF)
Bit depth : 24 bits
Compression mode : Lossy
Stream size : 1.29 GiB (10%)
Title : Original
Language : French
Default : No
Forced : No
Menu
00:00:00.000 : :Chapitre 01
00:11:05.665 : :Chapitre 02
00:20:55.087 : :Chapitre 03
00:31:07.532 : :Chapitre 04
00:41:02.168 : :Chapitre 05
00:51:05.979 : :Chapitre 06
01:03:09.368 : :Chapitre 07
01:13:39.998 : :Chapitre 08
01:23:59.117 : :Chapitre 09
01:33:58.090 : :Chapitre 10
01:46:31.718 : :Chapitre 11
01:56:10.964 : :Chapitre 12-
-Релиз от: -
[free-tor.info].t19460.torrent 
Торрент: Зарегистрирован [ 2019-02-17 17:07 ] · 7A5A57F12299E952DDF0BCC9295650986FF32677

Скачать .torrent

Скачать .torrent

18 KB

Статус: проверено
.torrent скачан: 11 раз
Размер: 13,1 GB
Правила
Похожие темы

[Профиль] [ЛС]
Показать сообщения:    
Ответить на тему

Текущее время: 17-Июл 02:35

Часовой пояс: UTC + 4



Вы не можете начинать темы
Вы не можете отвечать на сообщения
Вы не можете редактировать свои сообщения
Вы не можете удалять свои сообщения
Вы не можете голосовать в опросах
Вы не можете прикреплять файлы к сообщениям
Вы можете скачивать файлы
Анализ веб сайтов Яндекс.Метрика