Новый роман / The New Romantic (Карли Стоун) [2018, драма, мелодрама, комедия, WEB-DL 1080p | iTunes]

Ответить на тему
Статистика раздачи [Обновить пиров]
Размер:  3,06 GB   |    Зарегистрирован:  4 месяца 26 дней   |    .torrent скачан:  7 раз
Сидов:  118  [  0 KB/s  ]   Личеров:  8  [  0 KB/s  ]   Подробная статистика пиров
 
   
 
 
Автор Сообщение

Skorp10n ®

Оффлайн

 Активный раздающий 1 Активный раздающий 2
 Активный релизер 1000 Активный релизер 1500 Активный релизер 2000 Активный релизер 250 Активный релизер 3000 Активный релизер 500 Активный релизер 5000 Активный релизер Фильмов (1000) Активный релизер Фильмов (300) Активный релизер Фильмов (600) Активный Форумчанин 1 Активный Форумчанин 2 Активный Форумчанин 3 Активный Форумчанин 4 Друг трекера Карма 1000 Карма 1500 Карма 3000 Карма 500 Меценат Ни дня без новостей Орденосец 1 степени Орденосец 2 степени Орденосец 3 степени Почетный орденосец Почетный репортер С Новым 2016 Годом! С Новым 2017 Годом! С Новым 2018 Годом! С Новым 2019 Годом! Супер Мега Контер Квейк ТОП-10

Пол: Мужской

Стаж: 3 года 11 месяцев

Наличие запрета:

Сообщений: 10847

Откуда: Free-Tor.com

Отдача: не определено

Загрузка: не определено

Нажми

Создавать темы 17-Фев-2019 18:02

[Цитировать]

Информация о фильме- Название: Новый роман
Оригинальное название: The New Romantic
Год выпуска: 2018
Жанр: Драма, мелодрама, комедия
Режиссер: Карли Стоун
В ролях: Джессика Барден, Хэйли Лоу, Бретт Дир, Камила Мендес, Тимм Шарп, Эван Джогиа, Айви Матесон, Ева Линк, Грег Ованессян, Винни Беннетт-О фильме: Студентка Блэйк устала ходить на свидания со сверстниками, которые ничего не могут ей предложить. Знакомая подкидывает ей свежую идею - встречаться со взрослыми мужчинами ради подарков и прочих радостей жизни.- -Страна: Канада
Студия: Drive Films, Independent Edge Films, JoBro Productions & Film Finance
Продолжительность: 01:21:40
Перевод: Профессиональный двухголосый | iTunes-Файл-Качество: WEB-DL 1080p
Контейнер: MKV
Видео: MPEG-4 AVC, 1916x796, Display aspect ratio 2.407:1, 23.976 fps, 4486 Kbps
Аудио 1: Russian: AC3, 16 bits, 48 Khz, 5.1 ch, 384 Kbps | DVO, iTunes
Аудио 2: English: AC3, 16 bits, 48 Khz, 5.1 ch, 384 Kbps | Original
Субтитры: Русские, английские, французские, итальянские, испанские, украинские-Релиз от: george$t-

MediaInfo

-General
Unique ID : 193983022396350674860499576661613356313 (0x91EFC56A524D09A2A6969C7EA0BA2519)
Complete name : Новый Роман.2018.mkv
Format : Matroska
Format version : Version 2
File size : 3.06 GiB
Duration : 1 h 21 min
Overall bit rate : 5 361 kb/s
Encoded date : UTC 2019-01-25 12:37:12
Writing application : mkvmerge v7.8.0 ('River Man') 32bit built on Mar 27 2015 16:18:02
Writing library : libebml v1.3.1 + libmatroska v1.4.2
Video
ID : 1
Format : AVC
Format/Info : Advanced Video Codec
Format profile : [email protected]
Format settings : CABAC / 5 Ref Frames
Format settings, CABAC : Yes
Format settings, ReFrames : 5 frames
Codec ID : V_MPEG4/ISO/AVC
Duration : 1 h 21 min
Bit rate : 4 486 kb/s
Width : 1 916 pixels
Height : 796 pixels
Display aspect ratio : 2.40:1
Frame rate mode : Constant
Frame rate : 23.976 (24000/1001) FPS
Color space : YUV
Chroma subsampling : 4:2:0
Bit depth : 8 bits
Scan type : Progressive
Bits/(Pixel*Frame) : 0.123
Stream size : 2.56 GiB (84%)
Title : Новый Роман / The new romantic 2018
Language : English
Default : Yes
Forced : No
Color range : Limited
Color primaries : BT.709
Transfer characteristics : BT.709
Matrix coefficients : BT.709
Audio #1
ID : 2
Format : AC-3
Format/Info : Audio Coding 3
Codec ID : A_AC3
Duration : 1 h 21 min
Bit rate mode : Constant
Bit rate : 384 kb/s
Channel(s) : 6 channels
Channel positions : Front: L C R, Side: L R, LFE
Sampling rate : 48.0 kHz
Frame rate : 31.250 FPS (1536 SPF)
Bit depth : 16 bits
Compression mode : Lossy
Stream size : 224 MiB (7%)
Title : AC-3; 16 bits 48 Khz; 5.1ch 384 Kbps; CBR | DVO (iTunes)
Language : Russian
Service kind : Complete Main
Default : Yes
Forced : No
Audio #2
ID : 3
Format : AC-3
Format/Info : Audio Coding 3
Codec ID : A_AC3
Duration : 1 h 21 min
Bit rate mode : Constant
Bit rate : 384 kb/s
Channel(s) : 6 channels
Channel positions : Front: L C R, Side: L R, LFE
Sampling rate : 48.0 kHz
Frame rate : 31.250 FPS (1536 SPF)
Bit depth : 16 bits
Compression mode : Lossy
Stream size : 224 MiB (7%)
Title : AC-3; 16 bits 48 Khz; 5.1ch 384 Kbps; CBR | Original eng
Language : English
Service kind : Complete Main
Default : No
Forced : No
Text #1
ID : 4
Format : UTF-8
Codec ID : S_TEXT/UTF8
Codec ID/Info : UTF-8 Plain Text
Title : Субтитры русские (iTunes)
Language : Russian
Default : No
Forced : No
Text #2
ID : 5
Format : UTF-8
Codec ID : S_TEXT/UTF8
Codec ID/Info : UTF-8 Plain Text
Title : Субтитры английские (iTunes)
Language : English
Default : No
Forced : No
Text #3
ID : 6
Format : UTF-8
Codec ID : S_TEXT/UTF8
Codec ID/Info : UTF-8 Plain Text
Title : Субтитры французские (iTunes)
Language : French
Default : No
Forced : No
Text #4
ID : 7
Format : UTF-8
Codec ID : S_TEXT/UTF8
Codec ID/Info : UTF-8 Plain Text
Title : Субтитры итальянские (iTunes)
Language : Italian
Default : No
Forced : No
Text #5
ID : 8
Format : UTF-8
Codec ID : S_TEXT/UTF8
Codec ID/Info : UTF-8 Plain Text
Title : Субтитры испанские (iTunes)
Language : Spanish
Default : No
Forced : No
Text #6
ID : 9
Format : UTF-8
Codec ID : S_TEXT/UTF8
Codec ID/Info : UTF-8 Plain Text
Title : Субтитры украинские (iTunes)
Language : Ukrainian
Default : No
Forced : No-
-

Скриншоты

--
-
[free-tor.info].t19466.torrent 
Торрент: Зарегистрирован [ 2019-02-17 18:02 ] · 73BAC717537EB12583DF4D9409A74DD19F0E6693

Скачать .torrent

Скачать .torrent

16 KB

Статус: проверено
.torrent скачан: 7 раз
Размер: 3,06 GB
Правила
Похожие темы

[Профиль] [ЛС]
Показать сообщения:    
Ответить на тему

Текущее время: 16-Июл 04:35

Часовой пояс: UTC + 4



Вы не можете начинать темы
Вы не можете отвечать на сообщения
Вы не можете редактировать свои сообщения
Вы не можете удалять свои сообщения
Вы не можете голосовать в опросах
Вы не можете прикреплять файлы к сообщениям
Вы можете скачивать файлы
Анализ веб сайтов Яндекс.Метрика