Опасное расследование / Шок и трепет / Shock and Awe (Роб Райнер) [2017, триллер, драма, биография, история, BDRip 1080p | iTunes]

Ответить на тему
Статистика раздачи [Обновить пиров]
Размер:  6,86 GB   |    Зарегистрирован:  4 месяца 24 дня   |    .torrent скачан:  19 раз
Сидов:  210  [  0 KB/s  ]   Личеров:  6  [  0 KB/s  ]   Подробная статистика пиров
 
   
 
 
Автор Сообщение

Skorp10n ®

Оффлайн

 Активный раздающий 1 Активный раздающий 2
 Активный релизер 1000 Активный релизер 1500 Активный релизер 2000 Активный релизер 250 Активный релизер 3000 Активный релизер 500 Активный релизер 5000 Активный релизер Фильмов (1000) Активный релизер Фильмов (300) Активный релизер Фильмов (600) Активный Форумчанин 1 Активный Форумчанин 2 Активный Форумчанин 3 Активный Форумчанин 4 Друг трекера Карма 1000 Карма 1500 Карма 3000 Карма 500 Меценат Ни дня без новостей Орденосец 1 степени Орденосец 2 степени Орденосец 3 степени Почетный орденосец Почетный репортер С Новым 2016 Годом! С Новым 2017 Годом! С Новым 2018 Годом! С Новым 2019 Годом! Супер Мега Контер Квейк ТОП-10

Пол: Мужской

Стаж: 3 года 11 месяцев

Наличие запрета:

Сообщений: 10847

Откуда: Free-Tor.com

Отдача: не определено

Загрузка: не определено

Нажми

Создавать темы 19-Фев-2019 12:57

[Цитировать]

Информация о фильме- Название: Опасное расследование
Оригинальное название: Shock and Awe
Год выхода: 2017
Жанр: Триллер, драма, биография, история
Страна: США
Перевод: Дублированный | iTunes
Продолжительность: 01:30:50
Режиссер: Роб Райнер
В ролях: Вуди Харрельсон, Джеймс Марсден, Роб Райнер, Томми Ли Джонс, Джессика Бил, Милла Йовович, Ричард Шифф, Люк Тенни, Терренс Розмор, Марго Мурер и др.-О фильме: Реальная история о группе журналистов, которые ставят под сомнение публичное заявление властей о подготовке оружия массового уничтожения. Их газета становится едва ли не единственным изданием, предлагающим альтернативный взгляд на события, последовавшие после террористической атаки на США 11 сентября 2001 года. Репортёры проводят своё журналистское расследование и собирают доказательства обмана американской нации. Они встречаются с различными инсайдерами и находят секретные документы, ввязываясь в очень опасную игру…- -Файл-Качество: BDRip 1080p
Видео: MPEG-4 AVC, 1920x1036, 9982 kbps, 23,976 fps
Звук#1: русский, AC3, 5.1 ch, 48 kHz, 384 kbps | iTunes
Звук#2: английский, AC3, 5.1 ch, 48 kHz, 448 kbps | оригинал
Субтитры: английские (хардсаб на имена и локации, полные)-

MI

-General
Уникальный идентификатор : 199440060611255338885072858033853754426 (0x960AC22C049F28869046F5E89DD6EC3A)
Полное имя : E:TorrentShockAndAweBDRip1080p.mkv
Формат : Matroska
Версия формата : Version 4 / Version 2
Размер файла : 6.86 GiB
Продолжительность : 1 h 30 min
Общий поток : 10.8 Mb/s
Дата кодирования : UTC 2019-02-17 20:21:26
Программа кодирования : mkvmerge v9.5.0 ('Quiet Fire') 64bit
Библиотека кодирования : libebml v1.3.4 + libmatroska v1.4.5
Video
Идентификатор : 1
Формат : AVC
Формат/Информация : Advanced Video Codec
Профиль формата : [email protected]
Настройки формата : CABAC / 4 Ref Frames
Параметр CABAC формата : Yes
Параметр RefFrames формата : 4 frames
Идентификатор кодека : V_MPEG4/ISO/AVC
Продолжительность : 1 h 30 min
Битрейт : 9 982 kb/s
Ширина : 1 920 pixels
Высота : 1 036 pixels
Соотношение сторон : 1.85:1
Режим частоты кадров : Constant
Частота кадров : 23.976 (24000/1001) FPS
Цветовое пространство : YUV
Субдискретизация насыщенности : 4:2:0
Битовая глубина : 8 bits
Тип развёртки : Progressive
Бит/(Пиксели*Кадры) : 0.209
Размер потока : 6.33 GiB (92%)
Библиотека кодирования : x264 core 157 r2935 545de2f
Настройки программы : cabac=1 / ref=4 / deblock=1:-2:-2 / analyse=0x3:0x113 / me=umh / subme=11 / psy=1 / psy_rd=1.00:0.00 / mixed_ref=1 / me_range=32 / chroma_me=1 / trellis=2 / 8x8dct=1 / cqm=0 / deadzone=21,11 / fast_pskip=0 / chroma_qp_offset=-2 / threads=9 / lookahead_threads=2 / sliced_threads=0 / nr=0 / decimate=0 / interlaced=0 / bluray_compat=0 / constrained_intra=0 / bframes=12 / b_pyramid=2 / b_adapt=2 / b_bias=0 / direct=3 / weightb=1 / open_gop=0 / weightp=2 / keyint=240 / keyint_min=24 / scenecut=40 / intra_refresh=0 / rc_lookahead=120 / rc=2pass / mbtree=0 / bitrate=9982 / ratetol=1.0 / qcomp=0.70 / qpmin=0 / qpmax=69 / qpstep=4 / cplxblur=20.0 / qblur=0.5 / vbv_maxrate=50000 / vbv_bufsize=62500 / nal_hrd=none / filler=0 / ip_ratio=1.40 / pb_ratio=1.30 / aq=3:0.80
Язык : English
Default : Yes
Forced : No
Цветовой диапазон : Limited
Основные цвета : BT.709
Характеристики трансфера : BT.709
Коэффициенты матрицы : BT.709
Audio #1
Идентификатор : 2
Формат : AC-3
Формат/Информация : Audio Coding 3
Идентификатор кодека : A_AC3
Продолжительность : 1 h 30 min
Вид битрейта : Constant
Битрейт : 384 kb/s
Каналы : 6 channels
Расположение каналов : Front: L C R, Side: L R, LFE
Частота : 48.0 kHz
Частота кадров : 31.250 FPS (1536 SPF)
Битовая глубина : 16 bits
Метод сжатия : Lossy
Размер потока : 249 MiB (4%)
Язык : Russian
Default : Yes
Forced : No
Audio #2
Идентификатор : 3
Формат : AC-3
Формат/Информация : Audio Coding 3
Идентификатор кодека : A_AC3
Продолжительность : 1 h 30 min
Вид битрейта : Constant
Битрейт : 448 kb/s
Каналы : 6 channels
Расположение каналов : Front: L C R, Side: L R, LFE
Частота : 48.0 kHz
Частота кадров : 31.250 FPS (1536 SPF)
Битовая глубина : 16 bits
Метод сжатия : Lossy
Размер потока : 291 MiB (4%)
Язык : English
Default : No
Forced : No
Text
Идентификатор : 4
Формат : UTF-8
Идентификатор кодека : S_TEXT/UTF8
Идентификатор кодека/Информация : UTF-8 Plain Text
Продолжительность : 1 h 24 min
Битрейт : 105 b/s
ElementCount : 1663
Размер потока : 64.6 KiB (0%)
Язык : English
Default : No
Forced : No
Menu
00:00:00.000 : :Chapter 01
00:15:36.810 : :Chapter 02
00:30:40.129 : :Chapter 03
00:44:54.441 : :Chapter 04
01:02:24.073 : :Chapter 05
01:18:06.932 : :Chapter 06-
-

Скриншоты

--
-Релиз от: -
[free-tor.info].t19498.torrent 
Торрент: Зарегистрирован [ 2019-02-19 12:57 ] · 5F013952F7A9C90CFCFA45BC30A2BB5D3C428F57

Скачать .torrent

Скачать .torrent

18 KB

Статус: проверено
.torrent скачан: 19 раз
Размер: 6,86 GB
Правила
Похожие темы

[Профиль] [ЛС]
Показать сообщения:    
Ответить на тему

Текущее время: 16-Июл 04:47

Часовой пояс: UTC + 4



Вы не можете начинать темы
Вы не можете отвечать на сообщения
Вы не можете редактировать свои сообщения
Вы не можете удалять свои сообщения
Вы не можете голосовать в опросах
Вы не можете прикреплять файлы к сообщениям
Вы можете скачивать файлы
Анализ веб сайтов Яндекс.Метрика