Отвязные приключения в Лондоне / Lost in London (Вуди Харрельсон) [2017, драма, комедия, WEB-DL 1080p | iTunes]

Ответить на тему
Статистика раздачи [Обновить пиров]
Размер:  10,31 GB   |    Зарегистрирован:  4 месяца 16 дней   |    .torrent скачан:  14 раз
Сидов:  249  [  0 KB/s  ]   Личеров:  26  [  0 KB/s  ]   Подробная статистика пиров
 
   
 
 
Автор Сообщение

Skorp10n ®

Оффлайн

 Активный раздающий 1 Активный раздающий 2
 Активный релизер 1000 Активный релизер 1500 Активный релизер 2000 Активный релизер 250 Активный релизер 3000 Активный релизер 500 Активный релизер 5000 Активный релизер Фильмов (1000) Активный релизер Фильмов (300) Активный релизер Фильмов (600) Активный Форумчанин 1 Активный Форумчанин 2 Активный Форумчанин 3 Активный Форумчанин 4 Друг трекера Карма 1000 Карма 1500 Карма 3000 Карма 500 Меценат Ни дня без новостей Орденосец 1 степени Орденосец 2 степени Орденосец 3 степени Почетный орденосец Почетный репортер С Новым 2016 Годом! С Новым 2017 Годом! С Новым 2018 Годом! С Новым 2019 Годом! Супер Мега Контер Квейк ТОП-10

Пол: Мужской

Стаж: 3 года 11 месяцев

Наличие запрета:

Сообщений: 10847

Откуда: Free-Tor.com

Отдача: не определено

Загрузка: не определено

Нажми

Создавать темы 27-Фев-2019 13:16

[Цитировать]

Информация о фильме- Название: Отвязные приключения в Лондоне
Оригинальное название: Lost in London
Год выпуска: 2017
Жанр: Драма, комедия
Режиссер: Вуди Харрельсон
В ролях: Дэниэл Рэдклифф, Вуди Харрельсон, Оуэн Уилсон, Элинор Мацуура, Мартин МакКанн, Уилли Нельсон, Боно, Амир Эль-Марси, Питер Фердинандо, Али Хьюсон-О фильме: В основу сюжета фильма легли реальные события, происходившие с Вуди Харрельсоном в столице Великобритании. По воле случая главный герой оказывается в Лондоне. Чтобы скоротать время, он отправляется в местный паб… Но что-то пошло не так, когда Вуди встретил там своего старинного приятеля Оуэна. Всего за одну ночь он умудрился устроить невообразимый переполох. Ему удалось перевернуть с ног на голову весь город и оказаться в бурном водовороте самых необычных и забавных событий, которые только можно себе представить!- -Страна: США, Великобритания
Студия: Waypoint Entertainment
Продолжительность: 01:43:34
Перевод: Дублированный | iTunes-Файл-Качество: WEB-DL 1080p | AMAZON
Видео: MPEG-4 AVC, 1920x1080, 23.976 fps, 12900 Kbps
Аудио 1: Russian: АС3, 6 ch, 48 kHz, 384 Kbps - iTunes
Аудио 2: English: EАС3, 6 ch, 48 kHz, 640 Kbps - Оригинал
Субтитры: Английские
Навигация по главам: Есть-Релиз от: -

Скриншоты

--
-

MediaInfo

-Video
ID : 1
Format : AVC
Format/Info : Advanced Video Codec
Format profile : [email protected]
Format settings : CABAC / 4 Ref Frames
Format settings, CABAC : Yes
Format settings, ReFrames : 4 frames
Codec ID : V_MPEG4/ISO/AVC
Duration : 1 h 43 min
Bit rate mode : Variable
Bit rate : 12.9 Mb/s
Maximum bit rate : 15.0 Mb/s
Width : 1 920 pixels
Height : 1 080 pixels
Display aspect ratio : 16:9
Frame rate mode : Constant
Frame rate : 23.976 (24000/1001) FPS
Color space : YUV
Chroma subsampling : 4:2:0
Bit depth : 8 bits
Scan type : Progressive
Bits/(Pixel*Frame) : 0.260
Stream size : 9.36 GiB (91%)
Title : LOST_IN_LONDON_2017_WEB_DL_1080p_AMAZON-BLUEBIRD
Default : Yes
Forced : No
Color range : Limited
Color primaries : BT.709
Transfer characteristics : BT.709
Matrix coefficients : BT.709
Audio #1
ID : 2
Format : AC-3
Format/Info : Audio Coding 3
Commercial name : Dolby Digital
Codec ID : A_AC3
Duration : 1 h 43 min
Bit rate mode : Constant
Bit rate : 384 kb/s
Channel(s) : 6 channels
Channel layout : L R C LFE Ls Rs
Sampling rate : 48.0 kHz
Frame rate : 31.250 FPS (1536 SPF)
Bit depth : 16 bits
Compression mode : Lossy
Stream size : 284 MiB (3%)
Title : [DUB] DD 5.1 @ 384 kbps (iTunes)
Language : Russian
Service kind : Complete Main
Default : Yes
Forced : No
Audio #2
ID : 3
Format : E-AC-3
Format/Info : Enhanced AC-3
Commercial name : Dolby Digital Plus
Codec ID : A_EAC3
Duration : 1 h 43 min
Bit rate mode : Constant
Bit rate : 640 kb/s
Channel(s) : 6 channels
Channel layout : L R C LFE Ls Rs
Sampling rate : 48.0 kHz
Frame rate : 31.250 FPS (1536 SPF)
Compression mode : Lossy
Stream size : 474 MiB (4%)
Title : [ORIGINAL] DD+ 5.1 @ 640 kbps (Amazon)
Language : English
Service kind : Complete Main
Default : No
Forced : No
Text
ID : 4
Format : UTF-8
Codec ID : S_TEXT/UTF8
Codec ID/Info : UTF-8 Plain Text
Title : SDH
Language : English
Default : No
Forced : No
Menu
00:00:00.000 : en:1
00:01:02.000 : en:2
00:12:25.000 : en:3
00:24:40.000 : en:4
00:34:05.000 : en:5
00:45:56.000 : en:6
00:57:04.000 : en:7
01:07:04.000 : en:8
01:18:08.000 : en:9
01:28:57.000 : en:10
01:40:34.000 : en:11-
-
[free-tor.info].t19624.torrent 
Торрент: Зарегистрирован [ 2019-02-27 13:16 ] · 29EAB4689062DE1773FAD87D7F3124F0DC2E2518

Скачать .torrent

Скачать .torrent

52 KB

Статус: проверено
.torrent скачан: 14 раз
Размер: 10,31 GB
Правила
Volodymyr(27-Фев-19)
Похожие темы

[Профиль] [ЛС]
Показать сообщения:    
Ответить на тему

Текущее время: 16-Июл 04:46

Часовой пояс: UTC + 4



Вы не можете начинать темы
Вы не можете отвечать на сообщения
Вы не можете редактировать свои сообщения
Вы не можете удалять свои сообщения
Вы не можете голосовать в опросах
Вы не можете прикреплять файлы к сообщениям
Вы можете скачивать файлы
Анализ веб сайтов Яндекс.Метрика