Лоро / Loro (Паоло Соррентино) [2018, биография, драма, WEB-DL 1080p | iTunes]

Ответить на тему
Статистика раздачи [Обновить пиров]
Размер:  5,18 GB   |    Зарегистрирован:  4 месяца 15 дней   |    .torrent скачан:  16 раз
Сидов:  617  [  0 KB/s  ]   Личеров:  27  [  0 KB/s  ]   Подробная статистика пиров
 
   
 
 
Автор Сообщение

Skorp10n ®

Оффлайн

 Активный раздающий 1 Активный раздающий 2
 Активный релизер 1000 Активный релизер 1500 Активный релизер 2000 Активный релизер 250 Активный релизер 3000 Активный релизер 500 Активный релизер 5000 Активный релизер Фильмов (1000) Активный релизер Фильмов (300) Активный релизер Фильмов (600) Активный Форумчанин 1 Активный Форумчанин 2 Активный Форумчанин 3 Активный Форумчанин 4 Друг трекера Карма 1000 Карма 1500 Карма 3000 Карма 500 Меценат Ни дня без новостей Орденосец 1 степени Орденосец 2 степени Орденосец 3 степени Почетный орденосец Почетный репортер С Новым 2016 Годом! С Новым 2017 Годом! С Новым 2018 Годом! С Новым 2019 Годом! Супер Мега Контер Квейк ТОП-10

Пол: Мужской

Стаж: 3 года 11 месяцев

Наличие запрета:

Сообщений: 10847

Откуда: Free-Tor.com

Отдача: не определено

Загрузка: не определено

Нажми

Создавать темы 28-Фев-2019 11:29

[Цитировать]

Информация о фильме- Название: Лоро
Оригинальное название: Loro
Год выпуска: 2018
Жанр: Биография, драма
Режиссер: Паоло Соррентино
В ролях: Тони Сервилло, Елена София Риччи, Риккардо Скамарчо, Касия Смутняк, Эвридиче Аксэн, Фабрицио Бентивольо, Роберто Де Франческо, Дарио Кантарелли, Анна Бонаюто, Джованни Эспозито-О фильме: На закрытых вечеринках и дорогих приемах в Риме и на Сардинии его всегда окружают самые красивые и самые опасные люди, готовые на все, лишь бы получить доступ к живой легенде. «Лоро» («они») — это нувориши-итальянцы и их нравы, воплощение которых — тиран и весельчак, гедонист и романтик, скандальный политик и миллиардер Сильвио Берлускони.- -Страна: Италия, Франция
Студия: Direzione Generale Cinema, Fondazione Sardegna Film Commission, Indigo Film, OCS, Pathe, Regione Lazio
Продолжительность: 02:30:36
Перевод: Дублированный | iTunes-Файл-Качество: WEB-DL 1080p
Контейнер: MKV
Видео: MPEG-4 AVC, 4440 Кбит/с, 1920x806
Аудио: Русский: AC3, 6 ch, 384 Кбит/с
Субтитры: Нет-Релиз от: -

Скриншоты

--
-

MediaInfo

-General
Unique ID : 244822395322781630712125373871477292015 (0xB82F1406488601C2AA8CB6D75A64FBEF)
Complete name : Loro.2018.WEB-DL.1080p.ELEKTRI4KA.mkv
Format : Matroska
Format version : Version 2
File size : 5.18 GiB
Duration : 2 h 30 min
Overall bit rate : 4 922 kb/s
Encoded date : UTC 2019-02-26 17:23:46
Writing application : mkvmerge v7.8.0 ('River Man') 32bit built on Apr 3 2015 12:11:22
Writing library : libebml v1.3.1 + libmatroska v1.4.2
Video
ID : 2
Format : AVC
Format/Info : Advanced Video Codec
Format profile : [email protected]
Format settings : CABAC / 5 Ref Frames
Format settings, CABAC : Yes
Format settings, RefFrames : 5 frames
Codec ID : V_MPEG4/ISO/AVC
Duration : 2 h 30 min
Bit rate : 4 440 kb/s
Width : 1 920 pixels
Height : 806 pixels
Display aspect ratio : 2.40:1
Frame rate mode : Constant
Frame rate : 25.000 FPS
Color space : YUV
Chroma subsampling : 4:2:0
Bit depth : 8 bits
Scan type : Progressive
Bits/(Pixel*Frame) : 0.115
Stream size : 4.67 GiB (90%)
Language : English
Default : Yes
Forced : No
Color range : Limited
Color primaries : BT.709
Transfer characteristics : BT.709
Matrix coefficients : BT.709
Audio
ID : 1
Format : AC-3
Format/Info : Audio Coding 3
Format settings, Endianness : Big
Codec ID : A_AC3
Duration : 2 h 30 min
Bit rate mode : Constant
Bit rate : 384 kb/s
Channel(s) : 6 channels
Channel positions : Front: L C R, Side: L R, LFE
Sampling rate : 48.0 kHz
Frame rate : 31.250 FPS (1536 SPF)
Bit depth : 16 bits
Compression mode : Lossy
Stream size : 414 MiB (8%)
Language : Russian
Service kind : Complete Main
Default : Yes
Forced : No-
-
[free-tor.info].t19640.torrent 
Торрент: Зарегистрирован [ 2019-02-28 11:29 ] · 61F567A542764271E3A627303743036BA1BF2095

Скачать .torrent

Скачать .torrent

27 KB

Статус: проверено
.torrent скачан: 16 раз
Размер: 5,18 GB
Правила
Похожие темы

[Профиль] [ЛС]
Показать сообщения:    
Ответить на тему

Текущее время: 16-Июл 04:02

Часовой пояс: UTC + 4



Вы не можете начинать темы
Вы не можете отвечать на сообщения
Вы не можете редактировать свои сообщения
Вы не можете удалять свои сообщения
Вы не можете голосовать в опросах
Вы не можете прикреплять файлы к сообщениям
Вы можете скачивать файлы
Анализ веб сайтов Яндекс.Метрика