Король воров / King of Thieves (Джеймс Марш) [2018, драма, криминал, BDRip 1080p | iTunes]

Ответить на тему
Статистика раздачи [Обновить пиров]
Размер:  6,79 GB   |    Зарегистрирован:  3 месяца 16 дней   |    .torrent скачан:  10 раз
Сидов:  834  [  0 KB/s  ]   Личеров:  65  [  0 KB/s  ]   Подробная статистика пиров
 
   
 
 
Автор Сообщение

Skorp10n ®

Оффлайн

 Активный раздающий 1 Активный раздающий 2
 Активный релизер 1000 Активный релизер 1500 Активный релизер 2000 Активный релизер 250 Активный релизер 3000 Активный релизер 500 Активный релизер 5000 Активный релизер Фильмов (1000) Активный релизер Фильмов (300) Активный релизер Фильмов (600) Активный Форумчанин 1 Активный Форумчанин 2 Активный Форумчанин 3 Активный Форумчанин 4 Друг трекера Карма 1000 Карма 1500 Карма 3000 Карма 500 Меценат Ни дня без новостей Орденосец 1 степени Орденосец 2 степени Орденосец 3 степени Почетный орденосец Почетный репортер С Новым 2016 Годом! С Новым 2017 Годом! С Новым 2018 Годом! С Новым 2019 Годом! Супер Мега Контер Квейк ТОП-10

Пол: Мужской

Стаж: 3 года 10 месяцев

Наличие запрета:

Сообщений: 10760

Откуда: Free-Tor.com

Отдача: не определено

Загрузка: не определено

Нажми

Создавать темы 28-Фев-2019 11:49

[Цитировать]

Информация о фильме- Название: Король воров
Оригинальное название: King of Thieves
Год выхода: 2018
Жанр: Драма, криминал
Страна: Великобритания
Перевод: Дублированный | iTunes
Продолжительность: 01:47:37
Режиссер: Джеймс Марш
В ролях: Чарли Кокс, Майкл Гэмбон, Майкл Кейн, Джим Бродбент, Рэй Уинстон, Франческа Аннис, Том Кортни, Пол Уайтхаус, Келли Ширли, Бернардо Сантос и др.-О фильме: Группа отошедших от дел мошенников решает провернуть последнее дерзкое ограбление. Никто не представлял, что спланированная операция станет самым громким событием криминальной хроники Великобритании за последние сто лет…- -Файл-Качество: BDRip 1080p
Видео: MPEG-4 AVC, 1920x800, 8204 kbps, 24,000 fps
Звук#1: русский, AC3, 5.1 ch, 48 kHz, 384 kbps | iTunes
Звук#2: английский, AC3, 5.1 ch, 48 kHz, 448 kbps | оригинал
Субтитры: английские (полные, SDH)-

MI

-General
Уникальный идентификатор : 230676571559013013653833042914759016016 (0xAD8AB110DA68B4EEAA1BD0C0D611FE50)
Полное имя : E:TorrentKingOfThievesBDRip1080p.mkv
Формат : Matroska
Версия формата : Version 4 / Version 2
Размер файла : 6.79 GiB
Продолжительность : 1 h 47 min
Общий поток : 9 027 kb/s
Дата кодирования : UTC 2019-02-27 19:55:32
Программа кодирования : mkvmerge v9.5.0 ('Quiet Fire') 64bit
Библиотека кодирования : libebml v1.3.4 + libmatroska v1.4.5
Video
Идентификатор : 1
Формат : AVC
Формат/Информация : Advanced Video Codec
Профиль формата : [email protected]
Настройки формата : CABAC / 5 Ref Frames
Параметр CABAC формата : Yes
Параметр RefFrames формата : 5 frames
Идентификатор кодека : V_MPEG4/ISO/AVC
Продолжительность : 1 h 47 min
Битрейт : 8 204 kb/s
Ширина : 1 920 pixels
Высота : 800 pixels
Соотношение сторон : 2.40:1
Режим частоты кадров : Constant
Частота кадров : 24.000 FPS
Цветовое пространство : YUV
Субдискретизация насыщенности : 4:2:0
Битовая глубина : 8 bits
Тип развёртки : Progressive
Бит/(Пиксели*Кадры) : 0.223
Размер потока : 6.16 GiB (91%)
Библиотека кодирования : x264 core 157 r2935 545de2f
Настройки программы : cabac=1 / ref=5 / deblock=1:-1:-1 / analyse=0x3:0x113 / me=umh / subme=11 / psy=1 / psy_rd=1.00:0.00 / mixed_ref=1 / me_range=32 / chroma_me=1 / trellis=2 / 8x8dct=1 / cqm=0 / deadzone=21,11 / fast_pskip=0 / chroma_qp_offset=-2 / threads=9 / lookahead_threads=2 / sliced_threads=0 / nr=0 / decimate=0 / interlaced=0 / bluray_compat=0 / constrained_intra=0 / bframes=12 / b_pyramid=2 / b_adapt=2 / b_bias=0 / direct=3 / weightb=1 / open_gop=0 / weightp=2 / keyint=240 / keyint_min=24 / scenecut=40 / intra_refresh=0 / rc_lookahead=120 / rc=2pass / mbtree=0 / bitrate=8204 / ratetol=1.0 / qcomp=0.70 / qpmin=0 / qpmax=69 / qpstep=4 / cplxblur=20.0 / qblur=0.5 / vbv_maxrate=50000 / vbv_bufsize=62500 / nal_hrd=none / filler=0 / ip_ratio=1.40 / pb_ratio=1.30 / aq=3:0.80
Язык : English
Default : Yes
Forced : No
Audio #1
Идентификатор : 2
Формат : AC-3
Формат/Информация : Audio Coding 3
Идентификатор кодека : A_AC3
Продолжительность : 1 h 47 min
Вид битрейта : Constant
Битрейт : 384 kb/s
Каналы : 6 channels
Расположение каналов : Front: L C R, Side: L R, LFE
Частота : 48.0 kHz
Частота кадров : 31.250 FPS (1536 SPF)
Битовая глубина : 16 bits
Метод сжатия : Lossy
Размер потока : 296 MiB (4%)
Язык : Russian
Default : Yes
Forced : No
Audio #2
Идентификатор : 3
Формат : AC-3
Формат/Информация : Audio Coding 3
Идентификатор кодека : A_AC3
Продолжительность : 1 h 47 min
Вид битрейта : Constant
Битрейт : 448 kb/s
Каналы : 6 channels
Расположение каналов : Front: L C R, Side: L R, LFE
Частота : 48.0 kHz
Частота кадров : 31.250 FPS (1536 SPF)
Битовая глубина : 16 bits
Метод сжатия : Lossy
Размер потока : 345 MiB (5%)
Язык : English
Default : No
Forced : No
Text #1
Идентификатор : 4
Формат : UTF-8
Идентификатор кодека : S_TEXT/UTF8
Идентификатор кодека/Информация : UTF-8 Plain Text
Продолжительность : 1 h 46 min
Битрейт : 63 b/s
ElementCount : 1540
Размер потока : 49.7 KiB (0%)
Заголовок : engFull
Язык : English
Default : No
Forced : No
Text #2
Идентификатор : 5
Формат : UTF-8
Идентификатор кодека : S_TEXT/UTF8
Идентификатор кодека/Информация : UTF-8 Plain Text
Продолжительность : 1 h 46 min
Битрейт : 65 b/s
ElementCount : 1617
Размер потока : 51.6 KiB (0%)
Заголовок : engSDH
Язык : English
Default : No
Forced : No
Menu
00:00:00.000 : :Chapter 01
00:10:32.958 : :Chapter 02
00:20:26.458 : :Chapter 03
00:28:28.791 : :Chapter 04
00:38:04.125 : :Chapter 05
00:49:33.583 : :Chapter 06
00:58:11.000 : :Chapter 07
01:05:10.958 : :Chapter 08
01:19:10.208 : :Chapter 09
01:27:05.708 : :Chapter 10
01:33:18.625 : :Chapter 11
01:43:00.833 : :Chapter 12-
-

Скриншоты

--
-Релиз от: -
[free-tor.info].t19647.torrent 
Торрент: Зарегистрирован [ 2019-02-28 11:49 ] · A3B13416D5BE216F14361813F71080EF216A9518

Скачать .torrent

Скачать .torrent

18 KB

Статус: проверено
.torrent скачан: 10 раз
Размер: 6,79 GB
Правила
Похожие темы

[Профиль] [ЛС]
Показать сообщения:    
Ответить на тему

Текущее время: 16-Июн 12:31

Часовой пояс: UTC + 4



Вы не можете начинать темы
Вы не можете отвечать на сообщения
Вы не можете редактировать свои сообщения
Вы не можете удалять свои сообщения
Вы не можете голосовать в опросах
Вы не можете прикреплять файлы к сообщениям
Вы можете скачивать файлы
Анализ веб сайтов Яндекс.Метрика