Я - миллиардер / Io sono Tempesta (Даниэле Лукетти) [2018, комедия, BDRip 720p | D, A | iTunes]

Ответить на тему
Статистика раздачи [Обновить пиров]
Размер:  7,41 GB   |    Зарегистрирован:  4 месяца 15 дней   |    .torrent скачан:  7 раз
Сидов:  231  [  0 KB/s  ]   Личеров:  23  [  0 KB/s  ]   Подробная статистика пиров
 
   
 
 
Автор Сообщение

Skorp10n ®

Оффлайн

 Активный раздающий 1 Активный раздающий 2
 Активный релизер 1000 Активный релизер 1500 Активный релизер 2000 Активный релизер 250 Активный релизер 3000 Активный релизер 500 Активный релизер 5000 Активный релизер Фильмов (1000) Активный релизер Фильмов (300) Активный релизер Фильмов (600) Активный Форумчанин 1 Активный Форумчанин 2 Активный Форумчанин 3 Активный Форумчанин 4 Друг трекера Карма 1000 Карма 1500 Карма 3000 Карма 500 Меценат Ни дня без новостей Орденосец 1 степени Орденосец 2 степени Орденосец 3 степени Почетный орденосец Почетный репортер С Новым 2016 Годом! С Новым 2017 Годом! С Новым 2018 Годом! С Новым 2019 Годом! Супер Мега Контер Квейк ТОП-10

Пол: Мужской

Стаж: 3 года 11 месяцев

Наличие запрета:

Сообщений: 10847

Откуда: Free-Tor.com

Отдача: не определено

Загрузка: не определено

Нажми

Создавать темы 28-Фев-2019 11:56

[Цитировать]

Информация о фильме- Название: Я - миллиардер
Оригинальное название: Io sono Tempesta
Год выхода: 2018
Жанр: Комедия
Режиссер: Даниэле Лукетти
В ролях: Марко Джаллини, Элио Джермано, Элеонора Данко, Чо Сун, Франческо Геги, Карло Бигини, Марчелло Фонте, Франко Боккучча, Паола Да Грава, Памела Браун-О фильме:-Расчетливый и циничный миллиардер Нума Темпеста по решению суда вынужден провести год на общественных работах в приюте для бездомных. При этом у него отобрали загранпаспорт, а ему срочно нужно попасть на важную встречу за границей, иначе сорвется крупная сделка. На какие только ухищрения ни пойдет богач, чтобы провернуть задуманное.- -Страна: Италия
Студия: Bartlebyfilm, Cattleya, Rai Cinema
Продолжительность: 01:41:54
Перевод:
Профессиональный (многоголосый, закадровый) | iTunes
Авторский (одноголосый, закадровый) | Назаров-Файл-Качество: BDRip 720p
Формат: MKV
Кодек: MPEG-4 AVC
Видео: 1280x532 (2,40:1), 24 fps, MPEG-4 AVC ~ 7000 Кbps avg, 0.428 bit/pixel
Аудио: AC3, 48 kHz, 6 ch, ~384.00 kbps avg | русский | iTunes
Аудио: DTS, 48 kHz, 6 ch, ~1509.00 kbps avg | русский | Назаров
Аудио: DTS, 48 kHz, 6 ch, ~1509.00 kbps avg | итальянский | Оригинал-Субтитры: Английские (full), итальянские (full, SDH)-Семпл-

Инфо-файл

-Общее
Уникальный идентификатор : 183686897360537903130250867242396187069 (0x8A30CF4210AEDD77FCE27DC004F679BD)
Полное имя : Io.sono.Tempesta.2018.720p.BluRay.DD5.1.x264.Rus.Ita.mkv
Формат : Matroska
Версия формата : Version 4 / Version 2
Размер файла : 7,41 Гбайт
Продолжительность : 1 ч. 41 м.
Общий поток : 10,4 Мбит/сек
Название фильма : Я - миллиардер / Io sono Tempesta (2018)
Дата кодирования : UTC 2019-02-28 06:15:51
Программа кодирования : mkvmerge v27.0.0 ('Metropolis') 64-bit
Библиотека кодирования : libebml v1.3.6 + libmatroska v1.4.9
Видео
Идентификатор : 1
Формат : AVC
Формат/Информация : Advanced Video Codec
Профиль формата : [email protected]
Настройки формата : CABAC / 9 Ref Frames
Параметр CABAC формата : Да
Параметр RefFrames формата : 9 кадров
Идентификатор кодека : V_MPEG4/ISO/AVC
Продолжительность : 1 ч. 41 м.
Битрейт : 7000 Кбит/сек
Ширина : 1280 пикселей
Высота : 532 пикселя
Соотношение сторон : 2,40:1
Режим частоты кадров : Постоянный
Частота кадров : 24,000 кадра/сек
Цветовое пространство : YUV
Субдискретизация насыщенности : 4:2:0
Битовая глубина : 8 бит
Тип развёртки : Прогрессивная
Бит/(Пиксели*Кадры) : 0.428
Размер потока : 4,98 Гбайт (67%)
Библиотека кодирования : x264 core 157 r2935 545de2f
Настройки программы : cabac=1 / ref=9 / deblock=1:-3:-3 / analyse=0x3:0x113 / me=umh / subme=10 / psy=1 / psy_rd=1.05:0.10 / mixed_ref=1 / me_range=24 / chroma_me=1 / trellis=2 / 8x8dct=1 / cqm=0 / deadzone=21,11 / fast_pskip=0 / chroma_qp_offset=-3 / threads=5 / lookahead_threads=1 / sliced_threads=0 / nr=0 / decimate=1 / interlaced=0 / bluray_compat=0 / constrained_intra=0 / bframes=8 / b_pyramid=2 / b_adapt=2 / b_bias=0 / direct=3 / weightb=1 / open_gop=0 / weightp=2 / keyint=240 / keyint_min=10 / scenecut=40 / intra_refresh=0 / rc_lookahead=40 / rc=2pass / mbtree=1 / bitrate=7000 / ratetol=1.0 / qcomp=0.70 / qpmin=3 / qpmax=69 / qpstep=4 / cplxblur=20.0 / qblur=0.5 / ip_ratio=1.20 / aq=1:1.00
Язык : Italian
Default : Да
Forced : Нет
Цветовой диапазон : Limited
Основные цвета : BT.709
Характеристики трансфера : BT.709
Коэффициенты матрицы : BT.709
Аудио #1
Идентификатор : 2
Формат : AC-3
Формат/Информация : Audio Coding 3
Идентификатор кодека : A_AC3
Продолжительность : 1 ч. 41 м.
Вид битрейта : Постоянный
Битрейт : 384 Кбит/сек
Каналы : 6 каналов
Расположение каналов : Front: L C R, Side: L R, LFE
Частота : 48,0 КГц
Частота кадров : 31,250 кадров/сек (1536 SPF)
Битовая глубина : 16 бит
Метод сжатия : С потерями
Размер потока : 280 Мбайт (4%)
Заголовок : iTunes
Язык : Russian
Default : Да
Forced : Нет
Аудио #2
Идентификатор : 3
Формат : DTS
Формат/Информация : Digital Theater Systems
Идентификатор кодека : A_DTS
Продолжительность : 1 ч. 41 м.
Вид битрейта : Постоянный
Битрейт : 1509 Кбит/сек
Каналы : 6 каналов
Расположение каналов : Front: L C R, Side: L R, LFE
Частота : 48,0 КГц
Частота кадров : 93,750 кадра/сек (512 SPF)
Битовая глубина : 24 бит
Метод сжатия : С потерями
Размер потока : 1,07 Гбайт (15%)
Заголовок : Вадим Назаров
Язык : Russian
Default : Нет
Forced : Нет
Аудио #3
Идентификатор : 4
Формат : DTS
Формат/Информация : Digital Theater Systems
Идентификатор кодека : A_DTS
Продолжительность : 1 ч. 41 м.
Вид битрейта : Постоянный
Битрейт : 1509 Кбит/сек
Каналы : 6 каналов
Расположение каналов : Front: L C R, Side: L R, LFE
Частота : 48,0 КГц
Частота кадров : 93,750 кадра/сек (512 SPF)
Битовая глубина : 24 бит
Метод сжатия : С потерями
Размер потока : 1,07 Гбайт (15%)
Заголовок : Original
Язык : Italian
Default : Нет
Forced : Нет
Текст #1
Идентификатор : 5
Формат : UTF-8
Идентификатор кодека : S_TEXT/UTF8
Идентификатор кодека/Информация : UTF-8 Plain Text
Продолжительность : 1 ч. 35 м.
Битрейт : 63 бит/сек
ElementCount : 1314
Размер потока : 44,4 Кбайт (0%)
Заголовок : English
Язык : English
Default : Нет
Forced : Нет
Текст #2
Идентификатор : 6
Формат : UTF-8
Идентификатор кодека : S_TEXT/UTF8
Идентификатор кодека/Информация : UTF-8 Plain Text
Продолжительность : 1 ч. 37 м.
Битрейт : 75 бит/сек
ElementCount : 1505
Размер потока : 54,2 Кбайт (0%)
Заголовок : Italian
Язык : Italian
Default : Нет
Forced : Нет
Текст #3
Идентификатор : 7
Формат : UTF-8
Идентификатор кодека : S_TEXT/UTF8
Идентификатор кодека/Информация : UTF-8 Plain Text
Продолжительность : 1 ч. 37 м.
Битрейт : 81 бит/сек
ElementCount : 1570
Размер потока : 58,5 Кбайт (0%)
Заголовок : Italian SDH
Язык : Italian
Default : Нет
Forced : Нет
Меню
00:00:00.000 : it:1. Tempesta
00:09:31.292 : it:2. SFD
00:18:08.125 : it:3. Facoltoso
00:25:46.292 : it:4. Infastiditi
00:32:06.417 : it:5. In Macchina
00:40:03.167 : it:6. Pigiami
00:49:44.750 : it:7. Psicologhe
00:59:04.583 : it:8. In Albergo
01:09:11.250 : it:9. Smalto
01:17:31.333 : it:10. Funerale
01:24:33.375 : it:11. Denuncia
01:29:54.917 : it:12. Padri e Figli-
-

Скриншоты

--
-
[free-tor.info].t19649.torrent 
Торрент: Зарегистрирован [ 2019-02-28 11:56 ] · 55A56337A3A7C63587C6AFC0EEADA6A3C64A1EB9

Скачать .torrent

Скачать .torrent

19 KB

Статус: проверено
.torrent скачан: 7 раз
Размер: 7,41 GB
Правила
Похожие темы

[Профиль] [ЛС]
Показать сообщения:    
Ответить на тему

Текущее время: 16-Июл 03:58

Часовой пояс: UTC + 4



Вы не можете начинать темы
Вы не можете отвечать на сообщения
Вы не можете редактировать свои сообщения
Вы не можете удалять свои сообщения
Вы не можете голосовать в опросах
Вы не можете прикреплять файлы к сообщениям
Вы можете скачивать файлы
Анализ веб сайтов Яндекс.Метрика