Приключения Аладдина / Alad'2 (Лайонел Стекти) [2018, комедия, BDRip 1080p | iTunes]

Ответить на тему
Статистика раздачи [Обновить пиров]
Размер:  7,91 GB   |    Зарегистрирован:  4 месяца 11 дней   |    .torrent скачан:  9 раз
Сидов:  239  [  0 KB/s  ]   Личеров:  10  [  0 KB/s  ]   Подробная статистика пиров
 
   
 
 
Автор Сообщение

Skorp10n ®

Оффлайн

 Активный раздающий 1 Активный раздающий 2
 Активный релизер 1000 Активный релизер 1500 Активный релизер 2000 Активный релизер 250 Активный релизер 3000 Активный релизер 500 Активный релизер 5000 Активный релизер Фильмов (1000) Активный релизер Фильмов (300) Активный релизер Фильмов (600) Активный Форумчанин 1 Активный Форумчанин 2 Активный Форумчанин 3 Активный Форумчанин 4 Друг трекера Карма 1000 Карма 1500 Карма 3000 Карма 500 Меценат Ни дня без новостей Орденосец 1 степени Орденосец 2 степени Орденосец 3 степени Почетный орденосец Почетный репортер С Новым 2016 Годом! С Новым 2017 Годом! С Новым 2018 Годом! С Новым 2019 Годом! Супер Мега Контер Квейк ТОП-10

Пол: Мужской

Стаж: 3 года 11 месяцев

Наличие запрета:

Сообщений: 10847

Откуда: Free-Tor.com

Отдача: не определено

Загрузка: не определено

Нажми

Создавать темы 04-Мар-2019 11:37

[Цитировать]

Информация о фильме- Название: Приключения Аладдина
Оригинальное название: Alad'2
Год выхода: 2018
Жанр: Комедия
Режиссер: Лайонел Стекти
В ролях: Кев Адамс, Жамель Деббуз, Ванесса Гуид, Эрик Жюдор, Рамзи Бедиа, Вахид Бузиди, Ноэми Ленуар, Микаэль Коэн, Фатсах Буяхмед, Жерар Депардьё-О фильме:-А что бывает после «и жили они долго и счастливо»? На пороге Дворца в волшебном Багдаде, где проводят время Аладдин и Принцесса, появляется ужасный и опасный Диктатор. Чтобы избавиться от незваного гостя и не потерять Принцессу, Аладдину придется вновь окунуться в мир приключений и опасностей: пролететь на ковре-самолёте полмира, разыскать Волшебную лампу, своего приятеля Джинна и уже вместе с ним сразиться с Диктатором.- -Страна: Франция
Студия: Pathй, 74 films, M6 Films
Продолжительность: 01:37:50
Перевод: Дублированный (iTunes)-Файл-Качество: BDRip 1080p | iTunes
Видео: AVC/H.264, 1920x808, ~9685 Кbps, 23,976 fps
Звук:
Аудио 1: AC3, 6 ch, 384 Kbps - Русский
Аудио 2: DTS, 6 ch, 1509 Kbps - Французский
Субтитры: Отсутствуют-

Mediainfo

-Общее
Уникальный идентификатор : 197708086100727617933552434782101715409 (0x94BD313C55BE9B993FAB7D70DAD239D1)
Полное имя : Alad_2.2018.BDRip.1080p.mkv
Формат : Matroska
Версия формата : Version 4
Размер файла : 7,91 Гбайт
Продолжительность : 1 ч. 37 м.
Общий поток : 11,6 Мбит/сек
Дата кодирования : UTC 2019-02-28 18:56:39
Программа кодирования : mkvmerge v23.0.0 ('The Bride Said No') 64-bit
Библиотека кодирования : libebml v1.3.6 + libmatroska v1.4.9
Видео
Идентификатор : 1
Формат : AVC
Формат/Информация : Advanced Video Codec
Профиль формата : [email protected]
Настройки формата : CABAC / 5 Ref Frames
Параметр CABAC формата : Да
Параметр RefFrames формата : 5 кадров
Идентификатор кодека : V_MPEG4/ISO/AVC
Продолжительность : 1 ч. 37 м.
Битрейт : 9685 Кбит/сек
Ширина : 1920 пикселей
Высота : 808 пикселей
Соотношение сторон : 2,40:1
Режим частоты кадров : Постоянный
Частота кадров : 23,976 (24000/1001) кадра/сек
Цветовое пространство : YUV
Субдискретизация насыщенности : 4:2:0
Битовая глубина : 8 бит
Тип развёртки : Прогрессивная
Бит/(Пиксели*Кадры) : 0.260
Размер потока : 6,62 Гбайт (84%)
Библиотека кодирования : x264 core 157 r2935 545de2f
Настройки программы : cabac=1 / ref=5 / deblock=1:0:0 / analyse=0x3:0x113 / me=umh / subme=8 / psy=1 / psy_rd=1.00:0.00 / mixed_ref=1 / me_range=16 / chroma_me=1 / trellis=1 / 8x8dct=1 / cqm=0 / deadzone=21,11 / fast_pskip=1 / chroma_qp_offset=-2 / threads=18 / lookahead_threads=3 / sliced_threads=0 / nr=0 / decimate=1 / interlaced=0 / bluray_compat=0 / constrained_intra=0 / bframes=3 / b_pyramid=2 / b_adapt=2 / b_bias=0 / direct=3 / weightb=1 / open_gop=0 / weightp=2 / keyint=240 / keyint_min=24 / scenecut=40 / intra_refresh=0 / rc_lookahead=50 / rc=2pass / mbtree=1 / bitrate=9685 / ratetol=1.0 / qcomp=0.60 / qpmin=0 / qpmax=69 / qpstep=4 / cplxblur=20.0 / qblur=0.5 / ip_ratio=1.40 / aq=1:1.00
Язык : French
Default : Да
Forced : Нет
Аудио #1
Идентификатор : 2
Формат : AC-3
Формат/Информация : Audio Coding 3
Коммерческое название : Dolby Digital
Идентификатор кодека : A_AC3
Продолжительность : 1 ч. 37 м.
Вид битрейта : Постоянный
Битрейт : 384 Кбит/сек
Каналы : 6 каналов
Channel layout : L R C LFE Ls Rs
Частота : 48,0 КГц
Частота кадров : 31,250 кадров/сек (1536 SPF)
Битовая глубина : 16 бит
Метод сжатия : С потерями
Размер потока : 269 Мбайт (3%)
Заголовок : DUB | iTunes
Язык : Russian
ServiceKind : Complete Main
Default : Да
Forced : Нет
Аудио #2
Идентификатор : 3
Формат : DTS
Формат/Информация : Digital Theater Systems
Идентификатор кодека : A_DTS
Продолжительность : 1 ч. 37 м.
Вид битрейта : Постоянный
Битрейт : 1509 Кбит/сек
Каналы : 6 каналов
Channel layout : C L R Ls Rs LFE
Частота : 48,0 КГц
Частота кадров : 93,750 кадра/сек (512 SPF)
Битовая глубина : 24 бит
Метод сжатия : С потерями
Размер потока : 1,03 Гбайт (13%)
Язык : French
Default : Нет
Forced : Нет
Меню
00:00:00.000 : en:00:00:00.000
00:07:31.993 : en:00:07:31.993
00:16:00.585 : en:00:16:00.585
00:25:50.758 : en:00:25:50.758
00:35:22.871 : en:00:35:22.871
00:46:03.219 : en:00:46:03.219
00:54:19.798 : en:00:54:19.798
01:03:30.640 : en:01:03:30.640
01:11:25.531 : en:01:11:25.531
01:19:56.166 : en:01:19:56.166
01:28:22.756 : en:01:28:22.756
01:32:54.986 : en:01:32:54.986-
-

Скриншоты

--
-
[free-tor.info].t19698.torrent 
Торрент: Зарегистрирован [ 2019-03-04 11:37 ] · E6C740AF7BBA0B13E3E774B46C7303F880DA3894

Скачать .torrent

Скачать .torrent

40 KB

Статус: проверено
.torrent скачан: 9 раз
Размер: 7,91 GB
Правила
Volodymyr(05-Мар-19)
Похожие темы

[Профиль] [ЛС]
Показать сообщения:    
Ответить на тему

Текущее время: 16-Июл 04:10

Часовой пояс: UTC + 4



Вы не можете начинать темы
Вы не можете отвечать на сообщения
Вы не можете редактировать свои сообщения
Вы не можете удалять свои сообщения
Вы не можете голосовать в опросах
Вы не можете прикреплять файлы к сообщениям
Вы можете скачивать файлы
Анализ веб сайтов Яндекс.Метрика