Вернуть Бена / Ben Is Back (Питер Хеджес) [2018, драма, BDRip 1080p | iTunes]

Ответить на тему
Статистика раздачи [Обновить пиров]
Размер:  6,68 GB   |    Зарегистрирован:  4 месяца 11 дней   |    .torrent скачан:  17 раз
Сидов:  479  [  0 KB/s  ]   Личеров:  34  [  0 KB/s  ]   Подробная статистика пиров
 
   
 
 
Автор Сообщение

Skorp10n ®

Оффлайн

 Активный раздающий 1 Активный раздающий 2
 Активный релизер 1000 Активный релизер 1500 Активный релизер 2000 Активный релизер 250 Активный релизер 3000 Активный релизер 500 Активный релизер 5000 Активный релизер Фильмов (1000) Активный релизер Фильмов (300) Активный релизер Фильмов (600) Активный Форумчанин 1 Активный Форумчанин 2 Активный Форумчанин 3 Активный Форумчанин 4 Друг трекера Карма 1000 Карма 1500 Карма 3000 Карма 500 Меценат Ни дня без новостей Орденосец 1 степени Орденосец 2 степени Орденосец 3 степени Почетный орденосец Почетный репортер С Новым 2016 Годом! С Новым 2017 Годом! С Новым 2018 Годом! С Новым 2019 Годом! Супер Мега Контер Квейк ТОП-10

Пол: Мужской

Стаж: 3 года 11 месяцев

Наличие запрета:

Сообщений: 10847

Откуда: Free-Tor.com

Отдача: не определено

Загрузка: не определено

Нажми

Создавать темы 04-Мар-2019 12:26

[Цитировать]

Информация о фильме- Название: Вернуть Бена
Оригинальное название: Ben Is Back
Год выхода: 2018
Жанр: Драма
Страна: США
Перевод: Дублированный | iTunes
Продолжительность: 01:43:18
Режиссер: Питер Хеджес
В ролях: Джулия Робертс, Лукас Хеджес, Кортни Б. Вэнс, Кэтрин Ньютон, Рэйчел Бэй Джонс, Дэвид Залдивар, Александра Парк, Майкл Эспер, Тим Гини, Мира Лукреция Тейлор и др.-О фильме: В канун Рождества Бен Барнс сбегает из реабилитационного центра и возвращается домой. В свое время хлебнувшая с ним горя мать тепло принимает сына, но скоро убеждается, что ничего не изменилось — от парня по-прежнему нужно ждать беды. У нее есть 24 часа, чтобы уберечь сына от опасности. Но как далеко можно зайти, спасая тех, кого мы любим?- -Файл-Качество: BDRip 1080p
Видео: MPEG-4 AVC, 1920x804, 8429 kbps, 23,976 fps
Звук#1: русский, AC3, 5.1 ch, 48 kHz, 384 kbps | iTunes
Звук#2: английский, AC3, 5.1 ch, 48 kHz, 448 kbps | оригинал
Субтитры: английские (полные, SDH)-

MI

-Общее
Уникальный идентификатор : 229090398146151004652047768278341157664 (0xAC5934ADBE862F069C6EED8E923E8320)
Полное имя : E:TorrentBenIsBackBDRip1080p.mkv
Формат : Matroska
Версия формата : Version 4 / Version 2
Размер файла : 6,68 Гбайт
Продолжительность : 1 ч. 43 м.
Общий поток : 9252 Кбит/сек
Дата кодирования : UTC 2019-03-01 19:13:24
Программа кодирования : mkvmerge v9.5.0 ('Quiet Fire') 64bit
Библиотека кодирования : libebml v1.3.4 + libmatroska v1.4.5
Видео
Идентификатор : 1
Формат : AVC
Формат/Информация : Advanced Video Codec
Профиль формата : [email protected]
Настройки формата : CABAC / 5 Ref Frames
Параметр CABAC формата : Да
Параметр RefFrames формата : 5 кадров
Идентификатор кодека : V_MPEG4/ISO/AVC
Продолжительность : 1 ч. 43 м.
Битрейт : 8429 Кбит/сек
Ширина : 1920 пикселей
Высота : 804 пикселя
Соотношение сторон : 2,40:1
Режим частоты кадров : Постоянный
Частота кадров : 23,976 (24000/1001) кадра/сек
Цветовое пространство : YUV
Субдискретизация насыщенности : 4:2:0
Битовая глубина : 8 бит
Тип развёртки : Прогрессивная
Бит/(Пиксели*Кадры) : 0.228
Размер потока : 6,07 Гбайт (91%)
Библиотека кодирования : x264 core 157 r2935 545de2f
Настройки программы : cabac=1 / ref=5 / deblock=1:-1:-1 / analyse=0x3:0x113 / me=umh / subme=11 / psy=1 / psy_rd=1.00:0.00 / mixed_ref=1 / me_range=32 / chroma_me=1 / trellis=2 / 8x8dct=1 / cqm=0 / deadzone=21,11 / fast_pskip=0 / chroma_qp_offset=-2 / threads=9 / lookahead_threads=2 / sliced_threads=0 / nr=0 / decimate=0 / interlaced=0 / bluray_compat=0 / constrained_intra=0 / bframes=14 / b_pyramid=2 / b_adapt=2 / b_bias=0 / direct=3 / weightb=1 / open_gop=0 / weightp=2 / keyint=240 / keyint_min=24 / scenecut=40 / intra_refresh=0 / rc_lookahead=120 / rc=2pass / mbtree=0 / bitrate=8429 / ratetol=1.0 / qcomp=0.70 / qpmin=0 / qpmax=69 / qpstep=4 / cplxblur=20.0 / qblur=0.5 / vbv_maxrate=50000 / vbv_bufsize=62500 / nal_hrd=none / filler=0 / ip_ratio=1.40 / pb_ratio=1.30 / aq=3:0.80
Язык : English
Default : Да
Forced : Нет
Цветовой диапазон : Limited
Основные цвета : BT.709
Характеристики трансфера : BT.709
Коэффициенты матрицы : BT.709
Аудио #1
Идентификатор : 2
Формат : AC-3
Формат/Информация : Audio Coding 3
Идентификатор кодека : A_AC3
Продолжительность : 1 ч. 43 м.
Вид битрейта : Постоянный
Битрейт : 384 Кбит/сек
Каналы : 6 каналов
Расположение каналов : Front: L C R, Side: L R, LFE
Частота : 48,0 КГц
Частота кадров : 31,250 кадров/сек (1536 SPF)
Битовая глубина : 16 бит
Метод сжатия : С потерями
Размер потока : 283 Мбайт (4%)
Язык : Russian
Default : Да
Forced : Нет
Аудио #2
Идентификатор : 3
Формат : AC-3
Формат/Информация : Audio Coding 3
Идентификатор кодека : A_AC3
Продолжительность : 1 ч. 43 м.
Вид битрейта : Постоянный
Битрейт : 448 Кбит/сек
Каналы : 6 каналов
Расположение каналов : Front: L C R, Side: L R, LFE
Частота : 48,0 КГц
Частота кадров : 31,250 кадров/сек (1536 SPF)
Битовая глубина : 16 бит
Метод сжатия : С потерями
Размер потока : 331 Мбайт (5%)
Язык : English
Default : Нет
Forced : Нет
Текст #1
Идентификатор : 4
Формат : UTF-8
Идентификатор кодека : S_TEXT/UTF8
Идентификатор кодека/Информация : UTF-8 Plain Text
Продолжительность : 1 ч. 33 м.
Битрейт : 56 бит/сек
ElementCount : 1532
Размер потока : 38,6 Кбайт (0%)
Заголовок : engFull
Язык : English
Default : Нет
Forced : Нет
Текст #2
Идентификатор : 5
Формат : UTF-8
Идентификатор кодека : S_TEXT/UTF8
Идентификатор кодека/Информация : UTF-8 Plain Text
Продолжительность : 1 ч. 34 м.
Битрейт : 66 бит/сек
ElementCount : 1720
Размер потока : 46,4 Кбайт (0%)
Заголовок : engSDH
Язык : English
Default : Нет
Forced : Нет
Меню
00:00:00.000 : :Chapter 01
00:08:08.779 : :Chapter 02
00:13:19.298 : :Chapter 03
00:21:53.437 : :Chapter 04
00:27:45.372 : :Chapter 05
00:38:47.533 : :Chapter 06
00:43:14.049 : :Chapter 07
00:48:49.384 : :Chapter 08
00:52:47.122 : :Chapter 09
00:56:27.258 : :Chapter 10
01:02:52.310 : :Chapter 11
01:10:53.666 : :Chapter 12
01:15:55.384 : :Chapter 13
01:21:58.204 : :Chapter 14
01:27:27.784 : :Chapter 15
01:35:49.702 : :Chapter 16-
-

Скриншоты

--
-Релиз от: -
[free-tor.info].t19713.torrent 
Торрент: Зарегистрирован [ 2019-03-04 12:26 ] · 68310C068E2A1B447CB334B75CB4998F3AF66D75

Скачать .torrent

Скачать .torrent

18 KB

Статус: проверено
.torrent скачан: 17 раз
Размер: 6,68 GB
Правила
Похожие темы

[Профиль] [ЛС]
Показать сообщения:    
Ответить на тему

Текущее время: 16-Июл 04:36

Часовой пояс: UTC + 4



Вы не можете начинать темы
Вы не можете отвечать на сообщения
Вы не можете редактировать свои сообщения
Вы не можете удалять свои сообщения
Вы не можете голосовать в опросах
Вы не можете прикреплять файлы к сообщениям
Вы можете скачивать файлы
Анализ веб сайтов Яндекс.Метрика