Нация убийц / Assassination Nation (Сэм Левинсон) [2018, триллер, драма, комедия, криминал, BDRip 1080p от селезень | D, P | iTunes]

Ответить на тему
Статистика раздачи [Обновить пиров]
Размер:  10,7 GB   |    Зарегистрирован:  4 месяца 12 дней   |    .torrent скачан:  22 раза
Сидов:  363  [  0 KB/s  ]   Личеров:  30  [  0 KB/s  ]   Подробная статистика пиров
 
   
 
 
Автор Сообщение

Skorp10n ®

Оффлайн

 Активный раздающий 1 Активный раздающий 2
 Активный релизер 1000 Активный релизер 1500 Активный релизер 2000 Активный релизер 250 Активный релизер 3000 Активный релизер 500 Активный релизер 5000 Активный релизер Фильмов (1000) Активный релизер Фильмов (300) Активный релизер Фильмов (600) Активный Форумчанин 1 Активный Форумчанин 2 Активный Форумчанин 3 Активный Форумчанин 4 Друг трекера Карма 1000 Карма 1500 Карма 3000 Карма 500 Меценат Ни дня без новостей Орденосец 1 степени Орденосец 2 степени Орденосец 3 степени Почетный орденосец Почетный репортер С Новым 2016 Годом! С Новым 2017 Годом! С Новым 2018 Годом! С Новым 2019 Годом! Супер Мега Контер Квейк ТОП-10

Пол: Мужской

Стаж: 3 года 11 месяцев

Наличие запрета:

Сообщений: 10847

Откуда: Free-Tor.com

Отдача: не определено

Загрузка: не определено

Нажми

Создавать темы 04-Мар-2019 13:09

[Цитировать]

Информация о фильме- Название: Нация убийц
Оригинальное название: Assassination Nation
Год выхода: 2018
Жанр: Триллер, драма, комедия, криминал
Режиссер: Сэм Левинсон
В ролях: Одесса Янг, Хари Неф, Сьюки Уотерхаус, Абра, Колман Доминго, Билл Скарсгард, Джоэл МакХэйл, Аника Нони Роуз, Белла Торн, Мод Апатоу, Коди Кристиан, Дэнни Рамирес, Сьюзэн Миснер, Келвин Харрисон, Ной Галвин, Лукас Гейдж, Джефф Поуп, Джо Крест, Дж.Д. Эвермор- -О фильме: Селфи, эмоджи, снэпчаты и секстинг - вот в чем хороши старшеклассница Лили и ее лучшие подруги, живущие в мире бесконечных угарных вечеринок, интриг и секса без обязательств. Но, когда в результате хакерской атаки в открытый доступ выливаются тонны грязи и компромата, именно их делают крайними. Тихий городок Салем погружается в пучину кровавой анархии, и выжить здесь можно только убивая на опережение...-Страна: США
Студия: BRON Studios,Foxtail Entertainment,Phantom Four
Продолжительность: 01:47:58
Перевод(ы):
#1: Дублированный | iTunes

#2: Профессиональный многоголосый | HDRezka Studio-Качество: BDRip 1080p
Видео: MPEG-4 AVC, 1920x804, 13.0 Mbit/s, 23.976 fps
Звук:
Аудио #01: 48 kHz, AC3, 5.1, 384 Kbps | iTunes | RUS |
Аудио #02: 48 kHz, AC3, 2.0, 192 Kbps | HDRezka Studio | RUS |
Аудио #03: 48 kHz, AC3, 5.1, 640 Kbps | Оригинал | ENG |
Субтитры: Английские-

Скриншоты

--
-

MI

-General
Unique ID : 312205731290740036287554132355357027325 (0xEAE0A2FCD1B84D84B9D6B1F7E3372BFD)
Complete name : D:Video111Assassination.Nation.2018.BDRip.1080p.seleZen.mkv
Format : Matroska
Format version : Version 4
File size : 10.7 GiB
Duration : 1 h 47 min
Overall bit rate : 14.2 Mb/s
Movie name : Assassination Nation 2018 from селезень
Encoded date : UTC 2019-03-02 08:02:11
Writing application : mkvmerge v31.0.0 ('Dolores In A Shoestand') 64-bit
Writing library : libebml v1.3.6 + libmatroska v1.4.9
Video
ID : 1
Format : AVC
Format/Info : Advanced Video Codec
Format profile : [email protected]
Format settings : CABAC / 4 Ref Frames
Format settings, CABAC : Yes
Format settings, ReFrames : 4 frames
Codec ID : V_MPEG4/ISO/AVC
Duration : 1 h 47 min
Bit rate : 13.0 Mb/s
Width : 1 920 pixels
Height : 804 pixels
Display aspect ratio : 2.40:1
Frame rate mode : Constant
Frame rate : 23.976 (24000/1001) FPS
Color space : YUV
Chroma subsampling : 4:2:0
Bit depth : 8 bits
Scan type : Progressive
Bits/(Pixel*Frame) : 0.351
Stream size : 9.79 GiB (91%)
Title : iFT
Writing library : x264 core 142 r2431+42 c69a006 tMod [[email protected] X86_64]
Encoding settings : cabac=1 / ref=5 / deblock=1:-3:-3 / analyse=0x3:0x133 / me=umh / subme=11 / psy=1 / fade_compensate=0.00 / psy_rd=1.05:1.05 / mixed_ref=1 / me_range=48 / chroma_me=1 / trellis=2 / 8x8dct=1 / cqm=0 / deadzone=21,11 / fast_pskip=0 / chroma_qp_offset=-4 / threads=16 / lookahead_threads=2 / sliced_threads=0 / nr=0 / decimate=0 / interlaced=0 / bluray_compat=0 / constrained_intra=0 / fgo=0 / bframes=8 / b_pyramid=1 / b_adapt=2 / b_bias=0 / direct=3 / weightb=1 / open_gop=0 / weightp=2 / keyint=240 / keyint_min=23 / scenecut=40 / intra_refresh=0 / rc_lookahead=150 / rc=2pass / mbtree=0 / bitrate=13000 / ratetol=1.0 / qcomp=0.60 / qpmin=0:0:0 / qpmax=69:69:69 / qpstep=4 / cplxblur=20.0 / qblur=0.5 / vbv_maxrate=40000 / vbv_bufsize=30000 / nal_hrd=none / filler=0 / ip_ratio=1.30 / pb_ratio=1.20 / aq=2:0.58 / aq-sensitivity=10.00 / aq-factor=1.00:1.00:1.00 / aq2=0 / aq3=0
Language : English
Default : Yes
Forced : No
Color range : Limited
Color primaries : BT.709
Transfer characteristics : BT.709
Matrix coefficients : BT.709
Audio #1
ID : 2
Format : AC-3
Format/Info : Audio Coding 3
Commercial name : Dolby Digital
Codec ID : A_AC3
Duration : 1 h 47 min
Bit rate mode : Constant
Bit rate : 384 kb/s
Channel(s) : 6 channels
Channel layout : L R C LFE Ls Rs
Sampling rate : 48.0 kHz
Frame rate : 31.250 FPS (1536 SPF)
Bit depth : 16 bits
Compression mode : Lossy
Stream size : 297 MiB (3%)
Title : iTunes
Language : Russian
Service kind : Complete Main
Default : Yes
Forced : Yes
Audio #2
ID : 3
Format : AC-3
Format/Info : Audio Coding 3
Commercial name : Dolby Digital
Codec ID : A_AC3
Duration : 1 h 47 min
Bit rate mode : Constant
Bit rate : 192 kb/s
Channel(s) : 2 channels
Channel layout : L R
Sampling rate : 48.0 kHz
Frame rate : 31.250 FPS (1536 SPF)
Bit depth : 16 bits
Compression mode : Lossy
Stream size : 148 MiB (1%)
Title : HDRezka Studio
Language : Russian
Service kind : Complete Main
Default : No
Forced : No
Audio #3
ID : 4
Format : AC-3
Format/Info : Audio Coding 3
Commercial name : Dolby Digital
Codec ID : A_AC3
Duration : 1 h 47 min
Bit rate mode : Constant
Bit rate : 640 kb/s
Channel(s) : 6 channels
Channel layout : L R C LFE Ls Rs
Sampling rate : 48.0 kHz
Frame rate : 31.250 FPS (1536 SPF)
Bit depth : 16 bits
Compression mode : Lossy
Stream size : 494 MiB (5%)
Title : Original
Language : English
Service kind : Complete Main
Default : No
Forced : No
Text #1
ID : 5
Format : UTF-8
Codec ID : S_TEXT/UTF8
Codec ID/Info : UTF-8 Plain Text
Duration : 1 h 38 min
Bit rate : 57 b/s
Count of elements : 1283
Stream size : 41.5 KiB (0%)
Title : Full
Language : English
Default : No
Forced : No
Text #2
ID : 6
Format : UTF-8
Codec ID : S_TEXT/UTF8
Codec ID/Info : UTF-8 Plain Text
Duration : 1 h 46 min
Bit rate : 66 b/s
Count of elements : 1583
Stream size : 51.6 KiB (0%)
Title : SDH
Language : English
Default : No
Forced : No
Menu
00:00:00.000 : :Chapter 01
00:22:06.366 : :Chapter 02
00:43:51.712 : :Chapter 03
01:01:11.334 : :Chapter 04
01:16:31.169 : :Chapter 05
01:21:47.694 : :Chapter 06
01:28:27.135 : :Chapter 07
01:39:32.883 : :Chapter 08
01:47:58.513 : :Chapter 09-
-Релиз от: -
[free-tor.info].t19717.torrent 
Торрент: Зарегистрирован [ 2019-03-04 13:09 ] · 96B7B55C3AC34227C253D2357408660033EB2207

Скачать .torrent

Скачать .torrent

108 KB

Статус: проверено
.torrent скачан: 22 раз
Размер: 10,7 GB
Правила
Volodymyr(05-Мар-19)
Похожие темы

[Профиль] [ЛС]
Показать сообщения:    
Ответить на тему

Текущее время: 17-Июл 03:15

Часовой пояс: UTC + 4



Вы не можете начинать темы
Вы не можете отвечать на сообщения
Вы не можете редактировать свои сообщения
Вы не можете удалять свои сообщения
Вы не можете голосовать в опросах
Вы не можете прикреплять файлы к сообщениям
Вы можете скачивать файлы
Анализ веб сайтов Яндекс.Метрика