Дом, который построил Джек / The House That Jack Built (Ларс фон Триер) [2018, ужасы, триллер, драма, BDRemux 1080p от селезень | iTunes]

Ответить на тему
Статистика раздачи [Обновить пиров]
Размер:  30,13 GB   |    Зарегистрирован:  4 месяца 11 дней   |    .torrent скачан:  2 раза
Сидов:  123  [  0 KB/s  ]   Личеров:  14  [  0 KB/s  ]   Подробная статистика пиров
 
   
 
 
Автор Сообщение

Skorp10n ®

Оффлайн

 Активный раздающий 1 Активный раздающий 2
 Активный релизер 1000 Активный релизер 1500 Активный релизер 2000 Активный релизер 250 Активный релизер 3000 Активный релизер 500 Активный релизер 5000 Активный релизер Фильмов (1000) Активный релизер Фильмов (300) Активный релизер Фильмов (600) Активный Форумчанин 1 Активный Форумчанин 2 Активный Форумчанин 3 Активный Форумчанин 4 Друг трекера Карма 1000 Карма 1500 Карма 3000 Карма 500 Меценат Ни дня без новостей Орденосец 1 степени Орденосец 2 степени Орденосец 3 степени Почетный орденосец Почетный репортер С Новым 2016 Годом! С Новым 2017 Годом! С Новым 2018 Годом! С Новым 2019 Годом! Супер Мега Контер Квейк ТОП-10

Пол: Мужской

Стаж: 3 года 11 месяцев

Наличие запрета:

Сообщений: 10847

Откуда: Free-Tor.com

Отдача: не определено

Загрузка: не определено

Нажми

Создавать темы 04-Мар-2019 15:23

[Цитировать]

Информация о фильме- Название: Дом, который построил Джек
Оригинальное название: The House That Jack Built
Год выхода: 2018
Жанр: Ужасы, триллер, драма
Режиссер: Ларс фон Триер
В ролях: Мэтт Диллон, Бруно Ганц, Ума Турман, Шиван Фэллон, Софи Гробёль, Райли Кио, Джереми Дэвис, Эдвард Спелирс, Дэвид Бэйли, Ю Джи-тхэ- -О фильме: История серийного убийцы по имени Джек разворачивается в Америке 70-х. За 12 лет блестящей «карьеры» Джеку встретятся назойливая попутчица, наивная подружка и другие очаровательные в своей глупости жертвы. Пять невероятных, до жути изобретательных и порой до смеха абсурдных убийств, к каждому из которых Джек относится как к настоящему произведению искусства.-Страна: Дания, Франция, Германия, Швеция
Студия: Zentropa Entertainments, Centre National du Cinéma et de l'Image, Copenhagen Film Fund
Продолжительность: 02:32:34
Перевод: Дублированный | iTunes-Качество: BDRemux 1080p
Видео: MPEG-4 AVC, 1920x1080, 24.5 Mbit/s, 23.976 fps
Звук:
Аудио #01: 48 kHz, AC3, 5.1, 384 Kbps | iTunes | RUS |
Аудио #02: 48 kHz, DTS-HD MA, 5.1, 3420 Kbps | Оригинал | ENG |
Субтитры: Английские-

Скриншоты

--
-

MI

-General
Unique ID : 131935642164817326961514834286639507926 (0x6341E161BEAEA9AD7A36E6FD247AE9D6)
Complete name : D:Video111The.House.That.Jack.Built.2018.BDREMUX.1080p.seleZen.mkv
Format : Matroska
Format version : Version 4
File size : 30.1 GiB
Duration : 2 h 32 min
Overall bit rate mode : Variable
Overall bit rate : 28.3 Mb/s
Movie name : The House That Jack Built 2018 from селезень
Encoded date : UTC 2019-03-04 11:02:09
Writing application : mkvmerge v31.0.0 ('Dolores In A Shoestand') 64-bit
Writing library : libebml v1.3.6 + libmatroska v1.4.9
Video
ID : 1
Format : AVC
Format/Info : Advanced Video Codec
Format profile : [email protected]
Format settings : CABAC / 4 Ref Frames
Format settings, CABAC : Yes
Format settings, ReFrames : 4 frames
Codec ID : V_MPEG4/ISO/AVC
Duration : 2 h 32 min
Bit rate mode : Variable
Bit rate : 24.5 Mb/s
Maximum bit rate : 38.0 Mb/s
Width : 1 920 pixels
Height : 1 080 pixels
Display aspect ratio : 16:9
Frame rate mode : Constant
Frame rate : 24.000 FPS
Color space : YUV
Chroma subsampling : 4:2:0
Bit depth : 8 bits
Scan type : Progressive
Bits/(Pixel*Frame) : 0.492
Stream size : 26.1 GiB (87%)
Language : English
Default : Yes
Forced : No
Audio #1
ID : 2
Format : AC-3
Format/Info : Audio Coding 3
Commercial name : Dolby Digital
Codec ID : A_AC3
Duration : 2 h 32 min
Bit rate mode : Constant
Bit rate : 384 kb/s
Channel(s) : 6 channels
Channel layout : L R C LFE Ls Rs
Sampling rate : 48.0 kHz
Frame rate : 31.250 FPS (1536 SPF)
Bit depth : 16 bits
Compression mode : Lossy
Stream size : 419 MiB (1%)
Title : iTunes
Language : Russian
Service kind : Complete Main
Default : Yes
Forced : Yes
Audio #2
ID : 3
Format : DTS XLL
Format/Info : Digital Theater Systems
Commercial name : DTS-HD Master Audio
Codec ID : A_DTS
Duration : 2 h 32 min
Bit rate mode : Variable
Bit rate : 3 420 kb/s
Channel(s) : 6 channels
Channel layout : C L R Ls Rs LFE
Sampling rate : 48.0 kHz
Frame rate : 93.750 FPS (512 SPF)
Bit depth : 24 bits
Compression mode : Lossless
Stream size : 3.64 GiB (12%)
Title : Original
Language : English
Default : No
Forced : No
Text
ID : 4
Format : UTF-8
Codec ID : S_TEXT/UTF8
Codec ID/Info : UTF-8 Plain Text
Duration : 2 h 31 min
Bit rate : 45 b/s
Count of elements : 1628
Stream size : 51.1 KiB (0%)
Title : Full
Language : English
Default : No
Forced : No
Menu
00:00:00.000 : en:Chapter 01
00:08:41.375 : en:Chapter 02
00:15:11.500 : en:Chapter 03
00:29:16.500 : en:Chapter 04
00:42:38.000 : en:Chapter 05
00:49:34.083 : en:Chapter 06
00:57:58.417 : en:Chapter 07
01:17:27.292 : en:Chapter 08
01:41:17.542 : en:Chapter 09
01:51:48.208 : en:Chapter 10
02:13:45.500 : en:Chapter 11
02:28:28.208 : en:Chapter 12-
-Релиз от: -
[free-tor.info].t19749.torrent 
Торрент: Зарегистрирован [ 2019-03-04 15:23 ] · 30BC097E7A19C3F11419C33BECD67359D842F5A8

Скачать .torrent

Скачать .torrent

302 KB

Статус: проверено
.torrent скачан: 2 раз
Размер: 30,13 GB
Правила
Похожие темы

[Профиль] [ЛС]
Показать сообщения:    
Ответить на тему

Текущее время: 16-Июл 03:55

Часовой пояс: UTC + 4



Вы не можете начинать темы
Вы не можете отвечать на сообщения
Вы не можете редактировать свои сообщения
Вы не можете удалять свои сообщения
Вы не можете голосовать в опросах
Вы не можете прикреплять файлы к сообщениям
Вы можете скачивать файлы
Анализ веб сайтов Яндекс.Метрика