Завод (Юрий Быков) [2018, криминал, драма, триллер, WEB-DLRip | iTunes]

Ответить на тему
Статистика раздачи [Обновить пиров]
Размер:  2,05 GB   |    Зарегистрирован:  2 месяца 12 дней   |    .torrent скачан:  28 раз
Сидов:  429  [  0 KB/s  ]   Личеров:  17  [  0 KB/s  ]   Подробная статистика пиров
 
   
 
 
Автор Сообщение

Skorp10n ®

Оффлайн

 Активный раздающий 1 Активный раздающий 2
 Активный релизер 1000 Активный релизер 1500 Активный релизер 2000 Активный релизер 250 Активный релизер 3000 Активный релизер 500 Активный релизер 5000 Активный релизер Фильмов (1000) Активный релизер Фильмов (300) Активный релизер Фильмов (600) Активный Форумчанин 1 Активный Форумчанин 2 Активный Форумчанин 3 Активный Форумчанин 4 Друг трекера Карма 1000 Карма 1500 Карма 3000 Карма 500 Меценат Ни дня без новостей Орденосец 1 степени Орденосец 2 степени Орденосец 3 степени Почетный орденосец Почетный репортер С Новым 2016 Годом! С Новым 2017 Годом! С Новым 2018 Годом! С Новым 2019 Годом! Супер Мега Контер Квейк ТОП-10

Пол: Мужской

Стаж: 3 года 9 месяцев

Наличие запрета:

Сообщений: 10508

Откуда: Free-Tor.com

Отдача: не определено

Загрузка: не определено

Нажми

Создавать темы 04-Мар-2019 17:12

[Цитировать]

Завод / The Factory- Страна: Россия Армения Франция
Производство: START, KinoVista, Wild Bunch, Инвада фильм, Шарм Холдинг, Yellow, Black & White
Год выпуска: 2018
Жанр: криминал, драма, триллер
Продолжительность: 01:50:43-Режиссер: Юрий Быков
В ролях: Денис Шведов, Андрей Смоляков, Владислав Абашин, Иван Янковский, Александр Бухаров, Алексей Комашко, Александр Баширов-Описание: Прямо посреди дня из своего «мерса» похищен местный олигарх Калугин. Неизвестные в балаклавах потребовали за него большой выкуп. Отвезти деньги берётся глава личной охраны бизнесмена по кличке Туман. Его вооружённые до зубов «спецы» приезжают ночью на завод Калугина, где теперь босса держат в заложниках. Они пока не знают, что те другие, забаррикадировавшиеся в цехе — это местные рабочие во главе с бывшим спецназовцем по прозвищу Седой. Полгода без зарплаты и предстоящее банкротство завода толкнули их на отчаянный шаг.
Чтобы вытащить своего хозяина, «спецы» не остановятся ни перед чем. Но в отличие от них «работягам» больше нечего терять…- -Перевод: не требуется (оригинал) | iTunes
Субтитры: нет-Качество: WEB-DLRip
Формат: AVI
Видео кодек: XviD
Аудио кодек: АС3
Видео: 720x304 (2.35:1), 24.000 fps, XviD build 73 ~2 258 kbps avg
Аудио: 48.0 kHz, AC3 Dolby Digital, 3/2 (L,C,R,l,r) + LFE ch, ~384 kbps-Дата премьеры (мир): 7 сентября 2018
Дата премьеры (РФ): 7 февраля 2019, «Централ Партнершип»-Релиз от: порошков-

Media Info

-General
Формат : AVI
Формат/Информация : Audio Video Interleave
Профиль формата : OpenDML
Размер файла : 2,05 Гбайт
Продолжительность : 1 ч. 50 м.
Общий поток : 2654 Кбит/сек
Программа кодирования : VirtualDubMod 1.5.10.3 | (build 2550/release)
Библиотека кодирования : VirtualDubMod build 2550/release
Видео
Идентификатор : 0
Формат : MPEG-4 Visual
Профиль формата : Advanced [email protected]
Настройки формата : BVOP1 / Custom Matrix
Параметр BVOP формата : 1
Параметр QPel формата : Нет
Параметр GMC формата : Без точки перехода
Параметр матрицы формата : Выборочная
Идентификатор кодека : XVID
Идентификатор кодека/Подсказка : XviD
Продолжительность : 1 ч. 50 м.
Битрейт : 2258 Кбит/сек
Ширина : 720 пикселей
Высота : 304 пикселя
Соотношение сторон : 2,35:1
Частота кадров : 24,000 кадра/сек
Цветовое пространство : YUV
Субдискретизация насыщенности : 4:2:0
Битовая глубина : 8 бит
Тип развёртки : Прогрессивная
Метод сжатия : С потерями
Бит/(Пиксели*Кадры) : 0.430
Размер потока : 1,75 Гбайт (85%)
Библиотека кодирования : XviD 73
Аудио
Идентификатор : 1
Формат : AC-3
Формат/Информация : Audio Coding 3
Коммерческое название : Dolby Digital
Идентификатор кодека : 2000
Продолжительность : 1 ч. 50 м.
Вид битрейта : Постоянный
Битрейт : 384 Кбит/сек
Каналы : 6 каналов
Channel layout : L R C LFE Ls Rs
Частота : 48,0 КГц
Частота кадров : 31,250 кадров/сек (1536 SPF)
Битовая глубина : 16 бит
Метод сжатия : С потерями
Размер потока : 304 Мбайт (14%)
Выравнивание : Разделение по промежуткам
Продолжительность промежутка : 42 мс. (1,00 видеокадр)
Время предзагрузки промежутка : 500 мс.-
-

Скриншоты

--
-
[free-tor.info].t19760.torrent 
Торрент: Зарегистрирован [ 2019-03-14 23:54 ] · 8490D37BD696D30DEF71EC88BFDD1B2E4C11E716

Скачать .torrent

Скачать .torrent

11 KB

Статус: проверено
.torrent скачан: 28 раз
Размер: 2,05 GB
Правила
Похожие темы

[Профиль] [ЛС]
Показать сообщения:    
Ответить на тему

Текущее время: 27-Май 06:18

Часовой пояс: UTC + 4



Вы не можете начинать темы
Вы не можете отвечать на сообщения
Вы не можете редактировать свои сообщения
Вы не можете удалять свои сообщения
Вы не можете голосовать в опросах
Вы не можете прикреплять файлы к сообщениям
Вы можете скачивать файлы
Анализ веб сайтов Яндекс.Метрика