Завод (Юрий Быков) [2018, боевик, драма, триллер, криминал, WEB-DL 720p | iTunes]

Ответить на тему
Статистика раздачи [Обновить пиров]
Размер:  2,28 GB   |    Зарегистрирован:  2 месяца 12 дней   |    .torrent скачан:  21 раз
Сидов:  520  [  0 KB/s  ]   Личеров:  22  [  0 KB/s  ]   Подробная статистика пиров
 
   
 
 
Автор Сообщение

Skorp10n ®

Оффлайн

 Активный раздающий 1 Активный раздающий 2
 Активный релизер 1000 Активный релизер 1500 Активный релизер 2000 Активный релизер 250 Активный релизер 3000 Активный релизер 500 Активный релизер 5000 Активный релизер Фильмов (1000) Активный релизер Фильмов (300) Активный релизер Фильмов (600) Активный Форумчанин 1 Активный Форумчанин 2 Активный Форумчанин 3 Активный Форумчанин 4 Друг трекера Карма 1000 Карма 1500 Карма 3000 Карма 500 Меценат Ни дня без новостей Орденосец 1 степени Орденосец 2 степени Орденосец 3 степени Почетный орденосец Почетный репортер С Новым 2016 Годом! С Новым 2017 Годом! С Новым 2018 Годом! С Новым 2019 Годом! Супер Мега Контер Квейк ТОП-10

Пол: Мужской

Стаж: 3 года 9 месяцев

Наличие запрета:

Сообщений: 10508

Откуда: Free-Tor.com

Отдача: не определено

Загрузка: не определено

Нажми

Создавать темы 04-Мар-2019 17:12

[Цитировать]

Информация о фильме- Название: Завод
Год выпуска: 2018
Жанр: Боевик, драма, триллер, криминал
Режиссер: Юрий Быков
В ролях: Денис Шведов, Владислав Абашин, Андрей Смоляков, Александр Бухаров, Дмитрий Куличков, Иван Янковский, Юрий Тарасов, Пётр Баранчеев, Александр Воробьёв, Алексей Комашко, Кирилл Полухин, Александр Логинов, Сергей Сосновский, Борис Невзоров, Олег Алмазов, Александр Баширов, Алексей Фаддеев, Илья Соколовский-О фильме: Закрывают градообразующий завод. Владелец предприятия — олигарх Калугин — банкротит его, чтобы заключить выгодную сделку с иностранцами. Несколько тысяч рабочих остаются на улице без средств к существованию. Все смиренно принимают эту участь, и только пятеро отчаянных мужиков решают отстоять свое и взять хозяина в заложники, чтоб требовать с него деньги. Вожак работяг — Седой, воевавший и раненый в горячей точке, — вместе с товарищами вступает в смертельную схватку с опричником олигарха Туманом и его группой спецов за жизнь Калугина. Исход боя решит, кто прав — богатые или бедные.- -Страна: Россия, Армения, Франция
Студия: Kinovista, Forever Films Media, Coda, Sharm Holding
Продолжительность: 01:50:43
Перевод: Не требуется | iTunes-Файл-Качество: WEB-DL 720p
Контейнер: MKV
Видео: MPEG-4 AVC, 1280x532, 2566 Кбит/с, 24.000 fps
Аудио: Русский: AC3, 6 ch, 384 Кбит/с - iTunes
Субтитры: Нет-

Скриншоты

--
-

MediaInfo

-General
Unique ID : 224754196489244556497263011600713474237 (0xA916156E50CCDAB78A7E43D160F960BD)
Complete name : Zavod.2018.WEB-DL.(720p).Getty.mkv
Format : Matroska
Format version : Version 4 / Version 2
File size : 2.28 GiB
Duration : 1 h 50 min
Overall bit rate : 2 952 kb/s
Movie name : Zavod.2018.WEB-DL.(720p).Getty
Encoded date : UTC 2019-03-13 23:30:02
Writing application : mkvmerge v7.8.0 ('River Man') 32bit built on Mar 27 2015 16:18:02
Writing library : libebml v1.3.1 + libmatroska v1.4.2
Video
ID : 1
Format : AVC
Format/Info : Advanced Video Codec
Format profile : [email protected]
Format settings, CABAC : Yes
Format settings, RefFrames : 4 frames
Codec ID : V_MPEG4/ISO/AVC
Duration : 1 h 50 min
Bit rate : 2 566 kb/s
Width : 1 280 pixels
Height : 532 pixels
Display aspect ratio : 2.40:1
Frame rate mode : Constant
Frame rate : 24.000 FPS
Color space : YUV
Chroma subsampling : 4:2:0
Bit depth : 8 bits
Scan type : Progressive
Bits/(Pixel*Frame) : 0.154
Stream size : 1.94 GiB (85%)
Default : Yes
Forced : No
Audio
ID : 2
Format : AC-3
Format/Info : Audio Coding 3
Format settings, Endianness : Big
Codec ID : A_AC3
Duration : 1 h 50 min
Bit rate mode : Constant
Bit rate : 384 kb/s
Channel(s) : 6 channels
Channel positions : Front: L C R, Side: L R, LFE
Sampling rate : 48.0 kHz
Frame rate : 31.250 FPS (1536 SPF)
Bit depth : 16 bits
Compression mode : Lossy
Stream size : 304 MiB (13%)
Service kind : Complete Main
Default : Yes
Forced : No-
-
[free-tor.info].t19761.torrent 
Торрент: Зарегистрирован [ 2019-03-14 23:54 ] · 1B131046485BE4523961164DAF6F294EBF547D0D

Скачать .torrent

Скачать .torrent

12 KB

Статус: проверено
.torrent скачан: 21 раз
Размер: 2,28 GB
Правила
Похожие темы

[Профиль] [ЛС]
Показать сообщения:    
Ответить на тему

Текущее время: 27-Май 05:16

Часовой пояс: UTC + 4



Вы не можете начинать темы
Вы не можете отвечать на сообщения
Вы не можете редактировать свои сообщения
Вы не можете удалять свои сообщения
Вы не можете голосовать в опросах
Вы не можете прикреплять файлы к сообщениям
Вы можете скачивать файлы
Анализ веб сайтов Яндекс.Метрика