Любовь и прочий зоопарк / Гаспар едет на свадьбу / Gaspard va au mariage (Антони Кордье / Antony Cordier) [2017, мелодрама, комедия, WEB-DL 1080p | P, L2 | iTunes]

Ответить на тему
Статистика раздачи [Обновить пиров]
Размер:  4,38 GB   |    Зарегистрирован:  4 месяца 8 дней   |    .torrent скачан:  13 раз
Сидов:  128  [  0 KB/s  ]   Личеров:  20  [  0 KB/s  ]   Подробная статистика пиров
 
   
 
 
Автор Сообщение

Skorp10n ®

Оффлайн

 Активный раздающий 1 Активный раздающий 2
 Активный релизер 1000 Активный релизер 1500 Активный релизер 2000 Активный релизер 250 Активный релизер 3000 Активный релизер 500 Активный релизер 5000 Активный релизер Фильмов (1000) Активный релизер Фильмов (300) Активный релизер Фильмов (600) Активный Форумчанин 1 Активный Форумчанин 2 Активный Форумчанин 3 Активный Форумчанин 4 Друг трекера Карма 1000 Карма 1500 Карма 3000 Карма 500 Меценат Ни дня без новостей Орденосец 1 степени Орденосец 2 степени Орденосец 3 степени Почетный орденосец Почетный репортер С Новым 2016 Годом! С Новым 2017 Годом! С Новым 2018 Годом! С Новым 2019 Годом! Супер Мега Контер Квейк ТОП-10

Пол: Мужской

Стаж: 3 года 11 месяцев

Наличие запрета:

Сообщений: 10847

Откуда: Free-Tor.com

Отдача: не определено

Загрузка: не определено

Нажми

Создавать темы 07-Мар-2019 18:09

[Цитировать]

Информация о фильме- Название: Любовь и прочий зоопарк / Гаспар едет на свадьбу
Оригинальное название: Gaspard va au mariage
Год выпуска: 2017
Жанр: Мелодрама, комедия
Режиссер: Антони Кордье / Antony Cordier
В ролях: Феликс Моати, Летиция Дош, Криста Тере, Йохан Хельденберг, Гийом Гуи, Марина Фоис, Элоди Буше-Описание: Переехав в Париж, Гаспар долгое время отказывался поддерживать связь с семьей, но теперь все же решается съездить в дом своего детства, на свадьбу отца. В пути он случайно знакомится с эксцентричной Лорой и приглашает ее присоединиться, чтобы сыграть роль его подружки. Лора еще не знает, что следующие дни ей предстоит провести посреди заповедника в окружении удивительных зверей и не менее причудливых людей.- -Страна: Франция, Бельгия
Студия: Agat films & Cie, Artémis Productions, SHELTER PROD
Продолжительность: 01:43:01
Перевод: Профессиональный многоголосый, любительский двухголосый-Файл-Качество: WEB-DL 1080p
Контейнер: MKV
Видео: MPEG-4 AVC, 1920x1038, 24.000 fps, 5122 Kbps
Аудио 1: Русский: AC3, 16 bits, 48 KHz, 5.1 ch, 384 Kbps | MVO (iTunes)
Аудио 2: Русский: AC3, 16 bits, 48 KHz, 2.0 ch, 192 Kbps | DVO (LakeFilms)
Аудио 3: Французский: AC3, 16 bits, 48 KHz, 5.1 ch, 384 Kbps | Original
Субтитры: Русские, французские, английские, итальянские, немецкие, испанские-Релиз от: george$t-

MediaInfo

-General
Unique ID : 186249665480079954136905039641205721825 (0x8C1E617B52D9079B9804CEF4AE16CAE1)
Complete name : Любовь и прочий зоопарк.2017.mkv
Format : Matroska
Format version : Version 2
File size : 4.38 GiB
Duration : 1 h 43 min
Overall bit rate : 6 083 kb/s
Encoded date : UTC 2019-03-06 07:02:25
Writing application : mkvmerge v7.8.0 ('River Man') 32bit built on Mar 27 2015 16:18:02
Writing library : libebml v1.3.1 + libmatroska v1.4.2
Video
ID : 1
Format : AVC
Format/Info : Advanced Video Codec
Format profile : [email protected]
Format settings : CABAC / 4 Ref Frames
Format settings, CABAC : Yes
Format settings, ReFrames : 4 frames
Codec ID : V_MPEG4/ISO/AVC
Duration : 1 h 43 min
Bit rate : 5 002 kb/s
Width : 1 920 pixels
Height : 1 038 pixels
Display aspect ratio : 1.85:1
Frame rate mode : Constant
Frame rate : 24.000 FPS
Color space : YUV
Chroma subsampling : 4:2:0
Bit depth : 8 bits
Scan type : Progressive
Bits/(Pixel*Frame) : 0.105
Stream size : 3.60 GiB (82%)
Title : Любовь и прочий зоопарк / Gaspard va au mariage 2017
Language : French
Default : Yes
Forced : No
Color range : Limited
Color primaries : BT.709
Transfer characteristics : BT.709
Matrix coefficients : BT.709
Audio #1
ID : 2
Format : AC-3
Format/Info : Audio Coding 3
Codec ID : A_AC3
Duration : 1 h 43 min
Bit rate mode : Constant
Bit rate : 384 kb/s
Channel(s) : 6 channels
Channel positions : Front: L C R, Side: L R, LFE
Sampling rate : 48.0 kHz
Frame rate : 31.250 FPS (1536 SPF)
Bit depth : 16 bits
Compression mode : Lossy
Stream size : 283 MiB (6%)
Title : AC-3; 16 bits 48 Khz; 5.1ch 384 Kbps; CBR | MVO (iTunes)
Language : Russian
Service kind : Complete Main
Default : Yes
Forced : No
Audio #2
ID : 3
Format : AC-3
Format/Info : Audio Coding 3
Codec ID : A_AC3
Duration : 1 h 43 min
Bit rate mode : Constant
Bit rate : 192 kb/s
Channel(s) : 2 channels
Channel positions : Front: L R
Sampling rate : 48.0 kHz
Frame rate : 31.250 FPS (1536 SPF)
Bit depth : 16 bits
Compression mode : Lossy
Stream size : 142 MiB (3%)
Title : AC-3; 16 bits 48 Khz; 2.0ch 384 Kbps; CBR | DVO (LakeFilms)
Language : Russian
Service kind : Complete Main
Default : No
Forced : No
Audio #3
ID : 4
Format : AC-3
Format/Info : Audio Coding 3
Codec ID : A_AC3
Duration : 1 h 43 min
Bit rate mode : Constant
Bit rate : 384 kb/s
Channel(s) : 6 channels
Channel positions : Front: L C R, Side: L R, LFE
Sampling rate : 48.0 kHz
Frame rate : 31.250 FPS (1536 SPF)
Bit depth : 16 bits
Compression mode : Lossy
Stream size : 283 MiB (6%)
Title : AC-3; 16 bits 48 Khz; 5.1ch 384 Kbps; CBR | Original fre (iTunes)
Language : French
Service kind : Complete Main
Default : No
Forced : No
Text #1
ID : 5
Format : UTF-8
Codec ID : S_TEXT/UTF8
Codec ID/Info : UTF-8 Plain Text
Title : Субтитры русские (iTunes / TITRAFILM)
Language : Russian
Default : No
Forced : No
Text #2
ID : 6
Format : UTF-8
Codec ID : S_TEXT/UTF8
Codec ID/Info : UTF-8 Plain Text
Title : Субтитры русские (перевод И. Рыбкиной / ÉCLAIR)
Language : Russian
Default : No
Forced : No
Text #3
ID : 7
Format : UTF-8
Codec ID : S_TEXT/UTF8
Codec ID/Info : UTF-8 Plain Text
Title : Субтитры французские (iTunes)
Language : French
Default : No
Forced : No
Text #4
ID : 8
Format : UTF-8
Codec ID : S_TEXT/UTF8
Codec ID/Info : UTF-8 Plain Text
Title : Субтитры английские (iTunes)
Language : English
Default : No
Forced : No
Text #5
ID : 9
Format : UTF-8
Codec ID : S_TEXT/UTF8
Codec ID/Info : UTF-8 Plain Text
Title : Субтитры итальянские (iTunes)
Language : Italian
Default : No
Forced : No
Text #6
ID : 10
Format : UTF-8
Codec ID : S_TEXT/UTF8
Codec ID/Info : UTF-8 Plain Text
Title : Субтитры немецкие (iTunes)
Language : German
Default : No
Forced : No
Text #7
ID : 11
Format : UTF-8
Codec ID : S_TEXT/UTF8
Codec ID/Info : UTF-8 Plain Text
Title : Субтитры испанские (iTunes)
Language : Spanish
Default : No
Forced : No-
-

Скриншоты

--
-
[free-tor.info].t19813.torrent 
Торрент: Зарегистрирован [ 2019-03-07 18:09 ] · A6FBA848E37396FDA795E784D75C18DB2EED2C0B

Скачать .torrent

Скачать .torrent

23 KB

Статус: проверено
.torrent скачан: 13 раз
Размер: 4,38 GB
Правила
Похожие темы

[Профиль] [ЛС]
Показать сообщения:    
Ответить на тему

Текущее время: 16-Июл 04:18

Часовой пояс: UTC + 4



Вы не можете начинать темы
Вы не можете отвечать на сообщения
Вы не можете редактировать свои сообщения
Вы не можете удалять свои сообщения
Вы не можете голосовать в опросах
Вы не можете прикреплять файлы к сообщениям
Вы можете скачивать файлы
Анализ веб сайтов Яндекс.Метрика