Черная полоса / Fleuve noir / Black Tide (Эрик Зонка) [2018, триллер, драма, криминал, детектив, BDRip 1080p | iTunes]

Ответить на тему
Статистика раздачи [Обновить пиров]
Размер:  9,05 GB   |    Зарегистрирован:  4 месяца 8 дней   |    .torrent скачан:  12 раз
Сидов:  476  [  0 KB/s  ]   Личеров:  87  [  0 KB/s  ]   Подробная статистика пиров
 
   
 
 
Автор Сообщение

Skorp10n ®

Оффлайн

 Активный раздающий 1 Активный раздающий 2
 Активный релизер 1000 Активный релизер 1500 Активный релизер 2000 Активный релизер 250 Активный релизер 3000 Активный релизер 500 Активный релизер 5000 Активный релизер Фильмов (1000) Активный релизер Фильмов (300) Активный релизер Фильмов (600) Активный Форумчанин 1 Активный Форумчанин 2 Активный Форумчанин 3 Активный Форумчанин 4 Друг трекера Карма 1000 Карма 1500 Карма 3000 Карма 500 Меценат Ни дня без новостей Орденосец 1 степени Орденосец 2 степени Орденосец 3 степени Почетный орденосец Почетный репортер С Новым 2016 Годом! С Новым 2017 Годом! С Новым 2018 Годом! С Новым 2019 Годом! Супер Мега Контер Квейк ТОП-10

Пол: Мужской

Стаж: 3 года 11 месяцев

Наличие запрета:

Сообщений: 10847

Откуда: Free-Tor.com

Отдача: не определено

Загрузка: не определено

Нажми

Создавать темы 08-Мар-2019 15:29

[Цитировать]

Информация о фильме- Название: Черная полоса
Оригинальное название: Fleuve noir / Black Tide
Год выхода: 2018
Жанр: Триллер, драма, криминал, детектив
Режиссер: Эрик Зонка
В ролях: Венсан Кассель, Ромен Дюрис, Сандрин Киберлен, Элоди Буше, Шарль Берлинг, Афсиа Эрзи, Жером Пули, Феликс Бак, Лорена Телье, Стефан Войтович-О фильме:-Комиссар Франсуа Висконти, видавший виды полицейский, расследует, на первый взгляд, рутинное дело, связанное с исчезновением подростка Дэни Арно. Комиссару кажутся подозрительными все: и сексапильная мать, и немногословный громила-отец, и даже школьный учитель Ян Беллэль, неожиданно предложивший полицейскому свою помощь в поисках. Следствие петляет от подозреваемого к подозреваемому, но никаких следов подростка нет, и шансов найти его живым все меньше и меньше.- -Страна: Франция, Бельгия
Студия: Curiosa Films, Mars Films, France 2 Cinéma
Продолжительность: 01:53:30
Перевод: Дублированный | iTunes-Файл-Качество: BDRip 1080p | iTunes
Видео: AVC/H.264, 1920x804, ~9145 Кbps, 23,976 fps
Звук:
Аудио 1: AC3, 6 ch, 384 kbps - Русский
Аудио 2: AC3, 6 ch, 384 kbps - Украинский
Аудио 3: DTS, 6 ch, 1509 Kbps - Французский
Субтитры: Отсутствуют-

Mediainfo

-Общее
Уникальный идентификатор : 26417397435485542441200009825064737010 (0x13DFCE40DF65B6A0F5EBC5287D9658F2)
Полное имя : Fleuve Noir.2018.BDRip.1080p.W.mkv
Формат : Matroska
Версия формата : Version 4
Размер файла : 9,05 Гбайт
Продолжительность : 1 ч. 53 м.
Общий поток : 11,4 Мбит/сек
Название фильма : Fleuve Noir.2018.BDRip.1080p.W
Дата кодирования : UTC 2019-03-06 18:52:25
Программа кодирования : mkvmerge v23.0.0 ('The Bride Said No') 64-bit
Библиотека кодирования : libebml v1.3.6 + libmatroska v1.4.9
Видео
Идентификатор : 1
Формат : AVC
Формат/Информация : Advanced Video Codec
Профиль формата : [email protected]
Настройки формата : CABAC / 5 Ref Frames
Параметр CABAC формата : Да
Параметр RefFrames формата : 5 кадров
Идентификатор кодека : V_MPEG4/ISO/AVC
Продолжительность : 1 ч. 53 м.
Битрейт : 9145 Кбит/сек
Ширина : 1920 пикселей
Высота : 804 пикселя
Соотношение сторон : 2,40:1
Режим частоты кадров : Постоянный
Частота кадров : 23,976 (23976/1000) кадра/сек
Цветовое пространство : YUV
Субдискретизация насыщенности : 4:2:0
Битовая глубина : 8 бит
Тип развёртки : Прогрессивная
Бит/(Пиксели*Кадры) : 0.247
Размер потока : 7,25 Гбайт (80%)
Заголовок : rip by -=walledol=-
Библиотека кодирования : x264 core 157 r2935 545de2f
Настройки программы : cabac=1 / ref=5 / deblock=1:-3:-3 / analyse=0x3:0x133 / me=umh / subme=11 / psy=1 / psy_rd=1.00:0.00 / mixed_ref=1 / me_range=32 / chroma_me=1 / trellis=2 / 8x8dct=1 / cqm=0 / deadzone=21,11 / fast_pskip=0 / chroma_qp_offset=-2 / threads=12 / lookahead_threads=2 / sliced_threads=0 / nr=0 / decimate=1 / interlaced=0 / bluray_compat=0 / constrained_intra=0 / bframes=9 / b_pyramid=2 / b_adapt=2 / b_bias=0 / direct=3 / weightb=1 / open_gop=0 / weightp=2 / keyint=240 / keyint_min=23 / scenecut=40 / intra_refresh=0 / rc_lookahead=60 / rc=2pass / mbtree=0 / bitrate=9145 / ratetol=1.0 / qcomp=0.60 / qpmin=0 / qpmax=69 / qpstep=4 / cplxblur=20.0 / qblur=0.5 / vbv_maxrate=30000 / vbv_bufsize=33000 / nal_hrd=none / filler=0 / ip_ratio=1.40 / pb_ratio=1.30 / aq=3:0.80
Язык : French
Default : Да
Forced : Нет
Аудио #1
Идентификатор : 2
Формат : AC-3
Формат/Информация : Audio Coding 3
Коммерческое название : Dolby Digital
Идентификатор кодека : A_AC3
Продолжительность : 1 ч. 53 м.
Вид битрейта : Постоянный
Битрейт : 384 Кбит/сек
Каналы : 6 каналов
Channel layout : L R C LFE Ls Rs
Частота : 48,0 КГц
Частота кадров : 31,250 кадров/сек (1536 SPF)
Битовая глубина : 16 бит
Метод сжатия : С потерями
Размер потока : 312 Мбайт (3%)
Заголовок : DUB (iTunes)
Язык : Russian
ServiceKind : Complete Main
Default : Да
Forced : Нет
Аудио #2
Идентификатор : 3
Формат : AC-3
Формат/Информация : Audio Coding 3
Коммерческое название : Dolby Digital
Идентификатор кодека : A_AC3
Продолжительность : 1 ч. 53 м.
Вид битрейта : Постоянный
Битрейт : 384 Кбит/сек
Каналы : 6 каналов
Channel layout : L R C LFE Ls Rs
Частота : 48,0 КГц
Частота кадров : 31,250 кадров/сек (1536 SPF)
Битовая глубина : 16 бит
Метод сжатия : С потерями
Размер потока : 312 Мбайт (3%)
Заголовок : MVO (iTunes)
Язык : Ukrainian
ServiceKind : Complete Main
Default : Нет
Forced : Нет
Аудио #3
Идентификатор : 4
Формат : DTS
Формат/Информация : Digital Theater Systems
Идентификатор кодека : A_DTS
Продолжительность : 1 ч. 53 м.
Вид битрейта : Постоянный
Битрейт : 1509 Кбит/сек
Каналы : 6 каналов
Channel layout : C L R Ls Rs LFE
Частота : 48,0 КГц
Частота кадров : 93,750 кадра/сек (512 SPF)
Битовая глубина : 24 бит
Метод сжатия : С потерями
Размер потока : 1,20 Гбайт (13%)
Язык : French
Default : Нет
Forced : Нет
Меню
00:00:00.000 : fr:Chapter 1
00:11:00.326 : fr:Chapter 2
00:21:04.596 : fr:Chapter 3
00:29:31.936 : fr:Chapter 4
00:40:24.296 : fr:Chapter 5
00:54:07.869 : fr:Chapter 6
01:03:48.866 : fr:Chapter 7
01:15:23.143 : fr:Chapter 8
01:23:46.688 : fr:Chapter 9
01:33:18.676 : fr:Chapter 10
01:44:21.463 : fr:Chapter 11
01:51:24.094 : fr:Chapter 12
01:53:30.178 : fr:Chapter 13-
-

Скриншоты

--
-
[free-tor.info].t19827.torrent 
Торрент: Зарегистрирован [ 2019-03-08 15:29 ] · 175DBA76F471C91699618C857E7518FEF8BB14A0

Скачать .torrent

Скачать .torrent

46 KB

Статус: проверено
.torrent скачан: 12 раз
Размер: 9,05 GB
Правила
Похожие темы

[Профиль] [ЛС]
Показать сообщения:    
Ответить на тему

Текущее время: 17-Июл 02:18

Часовой пояс: UTC + 4



Вы не можете начинать темы
Вы не можете отвечать на сообщения
Вы не можете редактировать свои сообщения
Вы не можете удалять свои сообщения
Вы не можете голосовать в опросах
Вы не можете прикреплять файлы к сообщениям
Вы можете скачивать файлы
Анализ веб сайтов Яндекс.Метрика