Стажёр / Il tuttofare (Валерио Аттаназио) [2018, комедия, WEB-DL 1080p | iTunes]

Ответить на тему
Статистика раздачи [Обновить пиров]
Размер:  3,37 GB   |    Зарегистрирован:  4 месяца 7 дней   |    .torrent скачан:  20 раз
Сидов:  1344  [  0 KB/s  ]   Личеров:  80  [  0 KB/s  ]   Подробная статистика пиров
 
   
 
 
Автор Сообщение

Skorp10n ®

Оффлайн

 Активный раздающий 1 Активный раздающий 2
 Активный релизер 1000 Активный релизер 1500 Активный релизер 2000 Активный релизер 250 Активный релизер 3000 Активный релизер 500 Активный релизер 5000 Активный релизер Фильмов (1000) Активный релизер Фильмов (300) Активный релизер Фильмов (600) Активный Форумчанин 1 Активный Форумчанин 2 Активный Форумчанин 3 Активный Форумчанин 4 Друг трекера Карма 1000 Карма 1500 Карма 3000 Карма 500 Меценат Ни дня без новостей Орденосец 1 степени Орденосец 2 степени Орденосец 3 степени Почетный орденосец Почетный репортер С Новым 2016 Годом! С Новым 2017 Годом! С Новым 2018 Годом! С Новым 2019 Годом! Супер Мега Контер Квейк ТОП-10

Пол: Мужской

Стаж: 3 года 11 месяцев

Наличие запрета:

Сообщений: 10847

Откуда: Free-Tor.com

Отдача: не определено

Загрузка: не определено

Нажми

Создавать темы 08-Мар-2019 15:54

[Цитировать]

Информация о фильме- Название: Стажёр
Оригинальное название: Il tuttofare
Год выпуска: 2018
Жанр: Комедия
Режиссер: Валерио Аттаназио
В ролях: Серджо Кастеллитто, Гульельмо Поджи, Елена София Риччи, Клара Алонсо, Люка Авальяно, Риккардо Камилли, Доменико Чентаморе, Альберто Ди Стасио, Антонио Фулфаро, Роланд Литрико-О фильме: Начинающий юрист Антонио устраивается на стажировку к маститому адвокату, доктору Тоти. Антонио делает всё для него: он и помощник, и носильщик, и водитель, и даже личный повар. Ради карьерных перспектив юноша готов на многое, пока Тоти не просит о ещё одной услуге - жениться на его аргентинской любовнице, чтобы та смогла получить итальянское гражданство... Придётся выбирать - пойти на сделку с совестью или лишиться тёплого местечка в мире больших связей.- -Выпущено: Италия, Wildside, Vision Distribution, Sky Cinema
Продолжительность: 01:37:50
Перевод: Профессиональный многоголосый | iTunes-Файл-Качество: WEB-DL 1080p
Видео: MPEG-4 AVC, 4450 Кбит/с, 1920x804
Аудио: Russian: AC3, 6 ch, 384 Кбит/с
Субтитры: Русские-Релиз от: -

MediaInfo

-General
Unique ID : 177972227048726968729296243700888780896 (0x85E4344224487EA6AE4CA1EDDD304060)
Complete name : Il.tuttofare.WEB-DL.1080p.ELEKTRI4KA.mkv
Format : Matroska
Format version : Version 2
File size : 3.37 GiB
Duration : 1 h 37 min
Overall bit rate : 4 932 kb/s
Movie name : ELEKTRI4KA
Encoded date : UTC 2019-03-07 16:32:31
Writing application : mkvmerge v7.8.0 ('River Man') 32bit built on Apr 3 2015 12:11:22
Writing library : libebml v1.3.1 + libmatroska v1.4.2
Cover : Yes
Attachments : cover.jpg
Video
ID : 2
Format : AVC
Format/Info : Advanced Video Codec
Format profile : [email protected]
Format settings, CABAC : Yes
Format settings, RefFrames : 5 frames
Codec ID : V_MPEG4/ISO/AVC
Duration : 1 h 37 min
Bit rate : 4 450 kb/s
Width : 1 920 pixels
Height : 804 pixels
Display aspect ratio : 2.40:1
Frame rate mode : Constant
Frame rate : 24.000 FPS
Color space : YUV
Chroma subsampling : 4:2:0
Bit depth : 8 bits
Scan type : Progressive
Bits/(Pixel*Frame) : 0.120
Stream size : 3.04 GiB (90%)
Title : ELEKTRI4KA
Language : English
Default : Yes
Forced : No
Color range : Limited
Color primaries : BT.709
Transfer characteristics : BT.709
Matrix coefficients : BT.709
Audio
ID : 1
Format : AC-3
Format/Info : Audio Coding 3
Format settings, Endianness : Big
Codec ID : A_AC3
Duration : 1 h 37 min
Bit rate mode : Constant
Bit rate : 384 kb/s
Channel(s) : 6 channels
Channel positions : Front: L C R, Side: L R, LFE
Sampling rate : 48.0 kHz
Frame rate : 31.250 FPS (1536 SPF)
Bit depth : 16 bits
Compression mode : Lossy
Stream size : 269 MiB (8%)
Language : Russian
Service kind : Complete Main
Default : Yes
Forced : No
Text
ID : 3
Format : UTF-8
Codec ID : S_TEXT/UTF8
Codec ID/Info : UTF-8 Plain Text
Title : ELEKTRI4KA
Language : Russian
Default : Yes
Forced : No
Menu
00:00:00.000 : en:Глава 1
00:06:34.250 : en:Глава 2
00:14:21.375 : en:Глава 3
00:19:51.458 : en:Глава 4
00:27:13.708 : en:Глава 5
00:34:14.291 : en:Глава 6
00:39:49.666 : en:Глава 7
00:44:17.374 : en:Глава 8
00:50:23.124 : en:Глава 9
00:56:17.457 : en:Глава 10
01:03:08.498 : en:Глава 11
01:10:27.330 : en:Глава 12
01:15:35.246 : en:Глава 13
01:21:35.996 : en:Глава 14
01:27:25.871 : en:Глава 15-
-

Скриншоты

--
-
[free-tor.info].t19835.torrent 
Торрент: Зарегистрирован [ 2019-03-08 15:54 ] · 92FC3DD3E073EFCA2950DDC68C716DD27CD02A2F

Скачать .torrent

Скачать .torrent

18 KB

Статус: проверено
.torrent скачан: 20 раз
Размер: 3,37 GB
Правила
Volodymyr(08-Мар-19)
Похожие темы

[Профиль] [ЛС]
Показать сообщения:    
Ответить на тему

Текущее время: 16-Июл 04:00

Часовой пояс: UTC + 4



Вы не можете начинать темы
Вы не можете отвечать на сообщения
Вы не можете редактировать свои сообщения
Вы не можете удалять свои сообщения
Вы не можете голосовать в опросах
Вы не можете прикреплять файлы к сообщениям
Вы можете скачивать файлы
Анализ веб сайтов Яндекс.Метрика