Близнецы / Still/Born (Брэндон Кристенсен) [2017, ужасы, триллер, WEB-DL 1080p | iTunes]

Ответить на тему
Статистика раздачи [Обновить пиров]
Размер:  2,93 GB   |    Зарегистрирован:  4 месяца 3 дня   |    .torrent скачан:  16 раз
Сидов:  285  [  0 KB/s  ]   Личеров:  21  [  0 KB/s  ]   Подробная статистика пиров
 
   
 
 
Автор Сообщение

Skorp10n ®

Оффлайн

 Активный раздающий 1 Активный раздающий 2
 Активный релизер 1000 Активный релизер 1500 Активный релизер 2000 Активный релизер 250 Активный релизер 3000 Активный релизер 500 Активный релизер 5000 Активный релизер Фильмов (1000) Активный релизер Фильмов (300) Активный релизер Фильмов (600) Активный Форумчанин 1 Активный Форумчанин 2 Активный Форумчанин 3 Активный Форумчанин 4 Друг трекера Карма 1000 Карма 1500 Карма 3000 Карма 500 Меценат Ни дня без новостей Орденосец 1 степени Орденосец 2 степени Орденосец 3 степени Почетный орденосец Почетный репортер С Новым 2016 Годом! С Новым 2017 Годом! С Новым 2018 Годом! С Новым 2019 Годом! Супер Мега Контер Квейк ТОП-10

Пол: Мужской

Стаж: 3 года 11 месяцев

Наличие запрета:

Сообщений: 10847

Откуда: Free-Tor.com

Отдача: не определено

Загрузка: не определено

Нажми

Создавать темы 12-Мар-2019 19:42

[Цитировать]

Информация о фильме- Название: Близнецы
Оригинальное название: Still/Born
Год выхода: 2017
Жанр: ужасы, триллер
Режиссер: Брэндон Кристенсен
В ролях: Кристи Бурк, Джесси Мосс, Ребекка Олсон, Джен Гриффин, Майкл Айронсайд, Шейла Маккарти, Шон Роджерсон, Грэйс Кристенсен, Дайян Снейп, Бриттани Аллен-Описание: По древней легенде, демоны охотятся за душами близнецов, чтобы завладеть их телами в реальном мире. После потери одного из близнецов при родах Мэри испытывает постоянный страх за второго ребенка. Но чем сильнее ее страх, тем острее его чуют демоны, и тем ближе они к близнецу.- -Страна: Канада
Продолжительность: 01:23:26
Перевод: Профессиональный (Дублированный) (iTunes Russia)-Файл-Формат: MKV
Качество: WEB-DL 1080p (Источник: iTunes USA/RUS)
Видео: 1920x818 (2.35:1), 25.000 fps, 4421 kbps, 0.113 bit/pixel
Аудио #1: AAC, 2 ch, 126 kbps (Дублированный iTunes Russia)
Аудио #2: AC-3, 6 ch, 384 kbps (Дублированный iTunes Russia)
Субтитры: Нет
Навигация: Есть-

Скриншоты

--
-

MediaInfo

-General
Unique ID : 214808348359382418653141482243655903265 (0xA19A95422C4A1B3FA1E1C40FEC76A821)
Complete name : Still.Born.2017.WEB.DL.1080p.iTunes.mkv
Format : Matroska
Format version : Version 2
File size : 2.93 GiB
Duration : 1 h 23 min
Overall bit rate : 5 028 kb/s
Encoded date : UTC 2019-03-09 06:09:27
Writing application : mkvmerge v5.6.0 ('Kenya Kane') built on May 27 2012 16:44:04
Writing library : libebml v1.2.3 + libmatroska v1.3.0
Cover : Yes
Attachments : Cover.png
Video
ID : 1
Format : AVC
Format/Info : Advanced Video Codec
Format profile : [email protected]
Format settings : CABAC / 5 Ref Frames
Format settings, CABAC : Yes
Format settings, RefFrames : 5 frames
Codec ID : V_MPEG4/ISO/AVC
Duration : 1 h 23 min
Bit rate : 4 421 kb/s
Width : 1 920 pixels
Height : 818 pixels
Display aspect ratio : 2.35:1
Frame rate mode : Constant
Frame rate : 25.000 FPS
Color space : YUV
Chroma subsampling : 4:2:0
Bit depth : 8 bits
Scan type : Progressive
Bits/(Pixel*Frame) : 0.113
Stream size : 2.58 GiB (98%)
Language : English
Default : Yes
Forced : No
Color range : Limited
Color primaries : BT.709
Transfer characteristics : BT.709
Matrix coefficients : BT.709
Audio #1
ID : 2
Format : AAC
Format/Info : Advanced Audio Codec
Format profile : HE-AAC / LC
Format settings : Explicit
Codec ID : A_AAC-2
Duration : 1 h 23 min
Channel(s) : 2 channels
Channel positions : Front: L R
Sampling rate : 96.0 kHz / 48.0 kHz
Frame rate : 46.875 FPS (1024 SPF)
Compression mode : Lossy
Title : Дублированный 2.0 (iTunes Russia)
Language : Russian
Default : Yes
Forced : No
Audio #2
ID : 3
Format : AC-3
Format/Info : Audio Coding 3
Codec ID : A_AC3
Duration : 1 h 23 min
Bit rate mode : Constant
Bit rate : 384 kb/s
Channel(s) : 6 channels
Channel positions : Front: L C R, Side: L R, LFE
Sampling rate : 48.0 kHz
Frame rate : 31.250 FPS (1536 SPF)
Bit depth : 16 bits
Compression mode : Lossy
Stream size : 229 MiB (8%)
Title : Дублированный 5.1 (iTunes Russia)
Language : Russian
Service kind : Complete Main
Default : No
Forced : No
Menu
00:00:00.000 : :Chapter 01
00:04:30.240 : :Chapter 02
00:10:49.200 : :Chapter 03
00:17:51.400 : :Chapter 04
00:24:20.039 : :Chapter 05
00:29:13.719 : :Chapter 06
00:34:18.719 : :Chapter 07
00:39:16.519 : :Chapter 08
00:45:40.279 : :Chapter 09
00:51:42.679 : :Chapter 10
00:57:09.959 : :Chapter 11
01:03:11.879 : :Chapter 12
01:09:56.038 : :Chapter 13-
-
[free-tor.info].t19944.torrent 
Торрент: Зарегистрирован [ 2019-03-12 19:42 ] · 26344349F8FC970932FCACFA8796490D9223F285

Скачать .torrent

Скачать .torrent

16 KB

Статус: проверено
.torrent скачан: 16 раз
Размер: 2,93 GB
Правила
Agasfer(13-Мар-19), viktor1234(29-Мар-19)
Похожие темы

[Профиль] [ЛС]
Показать сообщения:    
Ответить на тему

Текущее время: 16-Июл 04:49

Часовой пояс: UTC + 4



Вы не можете начинать темы
Вы не можете отвечать на сообщения
Вы не можете редактировать свои сообщения
Вы не можете удалять свои сообщения
Вы не можете голосовать в опросах
Вы не можете прикреплять файлы к сообщениям
Вы можете скачивать файлы
Анализ веб сайтов Яндекс.Метрика