Снежные гонки / Racetime (Бенуа Годбут, Жан-Франсуа Пуле, Франсуа Бриссон) [2018, мультфильм, комедия, приключения, детский, полнометражный, BDRemux 1080p | iTunes]

Ответить на тему
Статистика раздачи [Обновить пиров]
Размер:  17,45 GB   |    Зарегистрирован:  4 месяца 3 дня   |    .torrent скачан:  7 раз
Сидов:  107  [  0 KB/s  ]   Личеров:  2  [  0 KB/s  ]   Подробная статистика пиров
 
   
 
 
Автор Сообщение

Skorp10n ®

Оффлайн

 Активный раздающий 1 Активный раздающий 2
 Активный релизер 1000 Активный релизер 1500 Активный релизер 2000 Активный релизер 250 Активный релизер 3000 Активный релизер 500 Активный релизер 5000 Активный релизер Фильмов (1000) Активный релизер Фильмов (300) Активный релизер Фильмов (600) Активный Форумчанин 1 Активный Форумчанин 2 Активный Форумчанин 3 Активный Форумчанин 4 Друг трекера Карма 1000 Карма 1500 Карма 3000 Карма 500 Меценат Ни дня без новостей Орденосец 1 степени Орденосец 2 степени Орденосец 3 степени Почетный орденосец Почетный репортер С Новым 2016 Годом! С Новым 2017 Годом! С Новым 2018 Годом! С Новым 2019 Годом! Супер Мега Контер Квейк ТОП-10

Пол: Мужской

Стаж: 3 года 11 месяцев

Наличие запрета:

Сообщений: 10847

Откуда: Free-Tor.com

Отдача: не определено

Загрузка: не определено

Нажми

Создавать темы 12-Мар-2019 19:50

[Цитировать]

Информация о фильме- Название: Снежные гонки
Оригинальное название: Racetime
Год выпуска: 2018
Жанр: Мультфильм, комедия, приключения, детский, полнометражный
Режиссер: Бенуа Годбут, Жан-Франсуа Пуле, Франсуа Бриссон
В ролях: Соня Болл, Люсинда Дэвис, Тод Феннел, Ноэль Фишер, Доун Форд, Анджела Галуппо, Холли Дж. Франкель, Элизабет Макрей, Сатине Скарлет Монтас, Дон Шеперд-О фильме: В маленькой живописной деревушке на заснеженных горных склонах Канады детвора устраивает настоящее спортивное состязание — гонки! Каждый участник подходит к делу со всей ответственностью и сам мастерит себе санки. Но, как и в любом другом виде спорта, в снежных гонках не обходится без обмана, ведь победить хочет каждый!- -Страна: Канада
Студия: CarpeDiem Film & TV
Продолжительность: 01:29:32
Перевод: Дублированный | iTunes-Файл-Качество: BDRemux 1080p
Формат: MKV
Видео: 1920x1080 , 23,976 fps, 25,5 Mbps, 0.513 bit/pixel
Аудио 1: Russian: 48 kHz, AC3 Dolby Digital, 3/2 (L,C,R,l,r) + LFE ch, 384 kbps
Аудио 2: English: 48 kHz, DTS MA, 5.1 ch, 2048 kbps, 16 bit (DTS Core: 5.1 / 48 kHz / 1509 kbps / 16 bit)
Субтитры: Нет
Навигация по главам: Есть-

Скриншоты

--
-

MediaInfo

-Общее
Уникальный идентификатор : 216571333253841079571918090052690313713 (0xA2EE1F1FEDC2280B6ACD8C2A66D901F1)
Полное имя : D:Racetime.2018.BDRemux 1080p.mkv
Формат : Matroska
Версия формата : Version 4 / Version 2
Размер файла : 17,5 Гбайт
Продолжительность : 1 ч. 29 м.
Режим общего битрейта : Переменный
Общий поток : 27,9 Мбит/сек
Название фильма : Racetime.2018.BDRemux 1080p -Azureus-
Дата кодирования : UTC 2019-03-10 09:41:08
Программа кодирования : mkvmerge v31.0.0 ('Dolores In A Shoestand') 64-bit
Библиотека кодирования : libebml v1.3.6 + libmatroska v1.4.9
Видео
Идентификатор : 1
Формат : AVC
Формат/Информация : Advanced Video Codec
Профиль формата : [email protected]
Настройки формата : CABAC / 4 Ref Frames
Параметр CABAC формата : Да
Параметр RefFrames формата : 4 кадра
Параметр GOP формата : M=3, N=24
Идентификатор кодека : V_MPEG4/ISO/AVC
Продолжительность : 1 ч. 29 м.
Вид битрейта : Переменный
Битрейт : 25,5 Мбит/сек
Максимальный битрейт : 35,0 Мбит/сек
Ширина : 1920 пикселей
Высота : 1080 пикселей
Соотношение сторон : 16:9
Режим частоты кадров : Постоянный
Частота кадров : 23,976 (24000/1001) кадра/сек
Стандарт вещания : NTSC
Цветовое пространство : YUV
Субдискретизация насыщенности : 4:2:0
Битовая глубина : 8 бит
Тип развёртки : Прогрессивная
Бит/(Пиксели*Кадры) : 0.513
Размер потока : 16,0 Гбайт (91%)
Язык : English
Default : Да
Forced : Нет
Цветовой диапазон : Limited
Основные цвета : BT.709
Характеристики трансфера : BT.709
Коэффициенты матрицы : BT.709
Аудио #1
Идентификатор : 2
Формат : AC-3
Формат/Информация : Audio Coding 3
Идентификатор кодека : A_AC3
Продолжительность : 1 ч. 29 м.
Вид битрейта : Постоянный
Битрейт : 384 Кбит/сек
Каналы : 6 каналов
Расположение каналов : Front: L C R, Side: L R, LFE
Частота : 48,0 КГц
Частота кадров : 31,250 кадров/сек (1536 SPF)
Битовая глубина : 16 бит
Метод сжатия : С потерями
Размер потока : 246 Мбайт (1%)
Заголовок : DUB
Язык : Russian
Default : Да
Forced : Нет
Аудио #2
Идентификатор : 3
Формат : DTS
Формат/Информация : Digital Theater Systems
Профиль формата : MA / Core
Идентификатор кодека : A_DTS
Продолжительность : 1 ч. 29 м.
Вид битрейта : Переменный / Постоянный
Битрейт : 2048 Кбит/сек / 1509 Кбит/сек
Каналы : 6 каналов
Расположение каналов : Front: L C R, Side: L R, LFE
Частота : 48,0 КГц
Частота кадров : 93,750 кадра/сек (512 SPF)
Битовая глубина : 16 бит
Метод сжатия : Без потерь / Lossy
Размер потока : 1,26 Гбайт (7%)
Заголовок : ENG
Язык : English
Default : Нет
Forced : Нет
Меню
00:00:00.000 : :Chapter 01
00:06:33.101 : :Chapter 02
00:12:33.711 : :Chapter 03
00:18:53.132 : :Chapter 04
00:22:58.460 : :Chapter 05
00:27:34.403 : :Chapter 06
00:31:56.832 : :Chapter 07
00:38:13.041 : :Chapter 08
00:44:17.655 : :Chapter 09
00:48:09.970 : :Chapter 10
00:53:56.817 : :Chapter 11
00:59:58.345 : :Chapter 12
01:06:00.331 : :Chapter 13
01:11:40.880 : :Chapter 14
01:17:42.908 : :Chapter 15
01:22:32.156 : :Chapter 16-
-
[free-tor.info].t19947.torrent 
Торрент: Зарегистрирован [ 2019-03-12 19:50 ] · ACD0AC2A826DC7792EE6FEA815D8E6D259E7BFFD

Скачать .torrent

Скачать .torrent

45 KB

Статус: проверено
.torrent скачан: 7 раз
Размер: 17,45 GB
Правила
Похожие темы

[Профиль] [ЛС]
Показать сообщения:    
Ответить на тему

Текущее время: 16-Июл 04:19

Часовой пояс: UTC + 4



Вы не можете начинать темы
Вы не можете отвечать на сообщения
Вы не можете редактировать свои сообщения
Вы не можете удалять свои сообщения
Вы не можете голосовать в опросах
Вы не можете прикреплять файлы к сообщениям
Вы можете скачивать файлы
Анализ веб сайтов Яндекс.Метрика