Власть / Vice (Адам МакКей) [2018, драма, комедия, биография, история, WEB-DL 1080p | HDRezka Studio]

Ответить на тему
Статистика раздачи [Обновить пиров]
Размер:  4,79 GB   |    Зарегистрирован:  2 месяца 12 дней   |    .torrent скачан:  26 раз
Сидов:  430  [  0 KB/s  ]   Личеров:  33  [  0 KB/s  ]   Подробная статистика пиров
 
   
 
 
Автор Сообщение

Skorp10n ®

Оффлайн

 Активный раздающий 1 Активный раздающий 2
 Активный релизер 1000 Активный релизер 1500 Активный релизер 2000 Активный релизер 250 Активный релизер 3000 Активный релизер 500 Активный релизер 5000 Активный релизер Фильмов (1000) Активный релизер Фильмов (300) Активный релизер Фильмов (600) Активный Форумчанин 1 Активный Форумчанин 2 Активный Форумчанин 3 Активный Форумчанин 4 Друг трекера Карма 1000 Карма 1500 Карма 3000 Карма 500 Меценат Ни дня без новостей Орденосец 1 степени Орденосец 2 степени Орденосец 3 степени Почетный орденосец Почетный репортер С Новым 2016 Годом! С Новым 2017 Годом! С Новым 2018 Годом! С Новым 2019 Годом! Супер Мега Контер Квейк ТОП-10

Пол: Мужской

Стаж: 3 года 9 месяцев

Наличие запрета:

Сообщений: 10508

Откуда: Free-Tor.com

Отдача: не определено

Загрузка: не определено

Нажми

Создавать темы 14-Мар-2019 23:30

[Цитировать]

Информация о фильме- Название: Власть
Оригинальное название: Vice
Год выхода: 2018
Жанр: Драма, комедия, биография, история
Режиссер: Адам МакКей
В ролях: Кристиан Бэйл, Эми Адамс, Стив Карелл, Сэм Рокуэлл, Элисон Пилл, Эдди Марсан, Джастин Кирк, Лиза Гэй Хэмилтон, Джесси Племонс, Билл Кэмп, Дон МакМанус, Лили Рэйб, Шей Уигэм, Стивен Эдли Гуиргис, Камилль Джеймс Харман, Джиллиан Арменанте, Мэттью Джейкобс, ...-О фильме:-Когда миром управляют деньги и связи, один человек может получить безграничное влияние. Уникальный дар убеждения, незаурядный ум и доступ на самые высокие уровни власти позволили ему стать кукловодом среди сильных мира сего. Оставаясь теневым игроком, он навсегда изменил ход истории…- -Страна: США
Студия: Annapurna Pictures, Gary Sanchez Productions, Plan B Entertainment
Продолжительность: 02:12:26
Перевод: Профессиональный многоголосый | HDRezka Studio-Файл-Кодек: AVC
Качество: WEB-DL 1080p | Vice.2018.1080p.WEB-DL.DD5.1.H264-FGT
Видео: MPEG-4 AVC, 4601 Кбит/с, 1916x800
Звук: ► Релиз - Effx
Аудио #1: Русский ( АС3, 2ch, 192 Кбит/с, 48.0 KHz) Профессиональный (многоголосый, закадровый) HDRezka Studio
Аудио #2: Английский ( АС3, 6ch, 384 Кбит/с, 48.0 KHz)
Субтитры: нет-

MediaInfo

-General
Unique ID : 242339902953866360842896599796047387811 (0xB650F7B3721C750A3B6B773B06FF9CA3)
Complete name : Vice.2019.1080p.WEB-DL.H264.AC3-EFFX.mkv
Format : Matroska
Format version : Version 4 / Version 2
File size : 4.79 GiB
Duration : 2 h 12 min
Overall bit rate : 5 178 kb/s
Encoded date : UTC 2019-03-14 14:42:10
Writing application : mkvmerge v22.0.0 ('At The End Of The World') 32-bit
Writing library : libebml v1.3.5 + libmatroska v1.4.8
Video
ID : 1
Format : AVC
Format/Info : Advanced Video Codec
Format profile : [email protected]
Format settings, CABAC : Yes
Format settings, RefFrames : 5 frames
Codec ID : V_MPEG4/ISO/AVC
Duration : 2 h 12 min
Bit rate : 4 601 kb/s
Width : 1 916 pixels
Height : 800 pixels
Display aspect ratio : 2.40:1
Frame rate mode : Constant
Frame rate : 23.976 (23976/1000) FPS
Color space : YUV
Chroma subsampling : 4:2:0
Bit depth : 8 bits
Scan type : Progressive
Bits/(Pixel*Frame) : 0.125
Stream size : 4.26 GiB (89%)
Language : English
Default : Yes
Forced : No
Color range : Limited
Color primaries : BT.709
Transfer characteristics : BT.709
Matrix coefficients : BT.709
Audio #1
ID : 2
Format : AC-3
Format/Info : Audio Coding 3
Format settings, Endianness : Big
Codec ID : A_AC3
Duration : 2 h 11 min
Bit rate mode : Constant
Bit rate : 192 kb/s
Channel(s) : 2 channels
Channel positions : Front: L R
Sampling rate : 48.0 kHz
Frame rate : 31.250 FPS (1536 SPF)
Bit depth : 16 bits
Compression mode : Lossy
Stream size : 181 MiB (4%)
Language : Russian
Service kind : Complete Main
Default : Yes
Forced : No
Audio #2
ID : 3
Format : AC-3
Format/Info : Audio Coding 3
Format settings, Endianness : Big
Codec ID : A_AC3
Duration : 2 h 12 min
Bit rate mode : Constant
Bit rate : 384 kb/s
Channel(s) : 6 channels
Channel positions : Front: L C R, Side: L R, LFE
Sampling rate : 48.0 kHz
Frame rate : 31.250 FPS (1536 SPF)
Bit depth : 16 bits
Compression mode : Lossy
Stream size : 364 MiB (7%)
Language : English
Service kind : Complete Main
Default : No
Forced : No
Menu
00:00:00.000 : en:Chapter 01
00:03:05.602 : en:Chapter 02
00:07:50.803 : en:Chapter 03
00:13:33.979 : en:Chapter 04
00:19:29.918 : en:Chapter 05
00:26:39.347 : en:Chapter 06
00:33:10.445 : en:Chapter 07
00:37:50.850 : en:Chapter 08
00:42:01.725 : en:Chapter 09
00:51:35.465 : en:Chapter 10
00:56:00.896 : en:Chapter 11
01:00:24.200 : en:Chapter 12
01:06:50.544 : en:Chapter 13
01:10:11.243 : en:Chapter 14
01:13:14.426 : en:Chapter 15
01:17:04.071 : en:Chapter 16
01:23:49.141 : en:Chapter 17
01:26:43.522 : en:Chapter 18
01:34:42.291 : en:Chapter 19
01:39:09.432 : en:Chapter 20
01:44:44.974 : en:Chapter 21
01:49:41.145 : en:Chapter 22
01:59:18.847 : en:Chapter 23
02:02:20.194 : en:Chapter 24-
-

Скриншоты

--
-
[free-tor.info].t20027.torrent 
Торрент: Зарегистрирован [ 2019-03-14 23:30 ] · 72AF9C924608A76C04F699D1ADA7F6C877C2B16A

Скачать .torrent

Скачать .torrent

13 KB

Статус: проверено
.torrent скачан: 26 раз
Размер: 4,79 GB
Правила
Похожие темы

[Профиль] [ЛС]
Показать сообщения:    
Ответить на тему

Текущее время: 27-Май 05:28

Часовой пояс: UTC + 4



Вы не можете начинать темы
Вы не можете отвечать на сообщения
Вы не можете редактировать свои сообщения
Вы не можете удалять свои сообщения
Вы не можете голосовать в опросах
Вы не можете прикреплять файлы к сообщениям
Вы можете скачивать файлы
Анализ веб сайтов Яндекс.Метрика