Под листьями / Beneath the Leaves (Адам Марино) [2019, триллер, WEB-DLRip-AVC от ExKinoRay | HDrezka Studio]

Ответить на тему
Статистика раздачи [Обновить пиров]
Размер:  1,48 GB   |    Зарегистрирован:  2 месяца 12 дней   |    .torrent скачан:  11 раз
Сидов:  20  [  0 KB/s  ]   Личеров:  5  [  0 KB/s  ]   Подробная статистика пиров
 
   
 
 
Автор Сообщение

Skorp10n ®

Оффлайн

 Активный раздающий 1 Активный раздающий 2
 Активный релизер 1000 Активный релизер 1500 Активный релизер 2000 Активный релизер 250 Активный релизер 3000 Активный релизер 500 Активный релизер 5000 Активный релизер Фильмов (1000) Активный релизер Фильмов (300) Активный релизер Фильмов (600) Активный Форумчанин 1 Активный Форумчанин 2 Активный Форумчанин 3 Активный Форумчанин 4 Друг трекера Карма 1000 Карма 1500 Карма 3000 Карма 500 Меценат Ни дня без новостей Орденосец 1 степени Орденосец 2 степени Орденосец 3 степени Почетный орденосец Почетный репортер С Новым 2016 Годом! С Новым 2017 Годом! С Новым 2018 Годом! С Новым 2019 Годом! Супер Мега Контер Квейк ТОП-10

Пол: Мужской

Стаж: 3 года 9 месяцев

Наличие запрета:

Сообщений: 10508

Откуда: Free-Tor.com

Отдача: не определено

Загрузка: не определено

Нажми

Создавать темы 14-Мар-2019 23:41

[Цитировать]

Название: Под листьями
Оригинальное название: Beneath the Leaves
Год выпуска: 2019
Жанр: Триллер
Режиссер: Адам Марино
В ролях: Даг Джонс, Мира Сорвино, Кристоффер Полаха, Мелора Уолтерс, Кристофер Мастерсон, Сер’Дариус Блэйн, Лили Бордан, Дон Суэйзи, Пол Сорвино, Кристофер Бакус-О фильме: Психопат Джеймс Уитли похищает четырех мальчиков. Его попытка воссоединить приемных детей с покойными биологическими родителями заканчивается освобождением детей и его арестом. Через двадцать лет во время пожара в тюрьме Уитли сбегает и собирается закончить начатое. Детектива Ларсона, бывшую жертву Уитли, отстраняют от дела, теперь им занимается его коллега и любовница детектив Шотвелл. Гнев и шанс на искупление заставляют Ларсона преследовать психопата, из-за чего он попадает в ту же ловушку, из который выбрался в детстве.--Выпущено: США, Reel Fire Entertainment
Продолжительность: 01:30:23
Перевод: Профессиональный многоголосый [HDRezka Studio]
Субтитры: Английские-БЕЗ КАКОЙ-ЛИБО РЕКЛАМЫ!-Формат: MKV
Качество: WEB-DLRip-AVC
Видео: MPEG-4 AVC, 1024x424 (2.40:1), 23.976 fps, 1773 Kbps, 0.170 bit/pixel
Аудио #01: 48 kHz, AC3, 2.0, 192 Kbps | HDRezka | RUS |
Аудио #02: 48 kHz, AC3, 5.1, 384 Kbps | Оригинал | ENG | -

ОтчетМедиаИнфо

-General
Unique ID : 211412222540448438526196387783625046368 (0x9F0C8353F7FD24DD8B1E7B11866A7960)
Complete name : D:Beneath.The.Leaves.2019.MVO.WEB-DLRip.AVC.ExKinoRay.mkv
Format : Matroska
Format version : Version 2
File size : 1.48 GiB
Duration : 1 h 30 min
Overall bit rate : 2 349 kb/s
Movie name : Beneath The Leaves 2019 from ExKinoRay
Encoded date : UTC 2019-03-11 23:48:13
Writing application : mkvmerge v5.6.0 ('Kenya Kane') built on May 27 2012 16:44:04
Writing library : libebml v1.2.3 + libmatroska v1.3.0
Video
ID : 1
Format : AVC
Format/Info : Advanced Video Codec
Format profile : [email protected]
Format settings, CABAC : Yes
Format settings, ReFrames : 10 frames
Codec ID : V_MPEG4/ISO/AVC
Duration : 1 h 30 min
Bit rate : 1 773 kb/s
Width : 1 024 pixels
Height : 424 pixels
Display aspect ratio : 2.40:1
Frame rate mode : Constant
Frame rate : 23.976 (23976/1000) FPS
Color space : YUV
Chroma subsampling : 4:2:0
Bit depth : 8 bits
Scan type : Progressive
Bits/(Pixel*Frame) : 0.170
Stream size : 1.09 GiB (73%)
Title : Enigma
Writing library : x264 core 152 r2851 ba24899
Encoding settings : cabac=1 / ref=10 / deblock=1:-2:-2 / analyse=0x3:0x113 / me=umh / subme=10 / psy=1 / psy_rd=1.05:0.10 / mixed_ref=1 / me_range=32 / chroma_me=1 / trellis=2 / 8x8dct=1 / cqm=0 / deadzone=21,11 / fast_pskip=0 / chroma_qp_offset=-3 / threads=12 / lookahead_threads=3 / sliced_threads=0 / nr=0 / decimate=0 / interlaced=0 / bluray_compat=0 / constrained_intra=0 / bframes=10 / b_pyramid=2 / b_adapt=2 / b_bias=0 / direct=3 / weightb=1 / open_gop=0 / weightp=2 / keyint=240 / keyint_min=23 / scenecut=40 / intra_refresh=0 / rc=2pass / mbtree=0 / bitrate=1773 / ratetol=1.0 / qcomp=0.65 / qpmin=0 / qpmax=51 / qpstep=4 / cplxblur=20.0 / qblur=0.5 / ip_ratio=1.40 / pb_ratio=1.30 / aq=1:1.00
Language : English
Default : Yes
Forced : No
Color range : Limited
Color primaries : BT.709
Transfer characteristics : BT.709
Matrix coefficients : BT.709
Audio #1
ID : 2
Format : AC-3
Format/Info : Audio Coding 3
Mode extension : CM (complete main)
Format settings, Endianness : Big
Codec ID : A_AC3
Duration : 1 h 30 min
Bit rate mode : Constant
Bit rate : 192 kb/s
Channel(s) : 2 channels
Channel positions : Front: L R
Sampling rate : 48.0 kHz
Frame rate : 31.250 FPS (1536 spf)
Compression mode : Lossy
Stream size : 124 MiB (8%)
Title : MVO
Language : Russian
Default : Yes
Forced : No
Audio #2
ID : 3
Format : AC-3
Format/Info : Audio Coding 3
Mode extension : CM (complete main)
Format settings, Endianness : Big
Codec ID : A_AC3
Duration : 1 h 30 min
Bit rate mode : Constant
Bit rate : 384 kb/s
Channel(s) : 6 channels
Channel positions : Front: L C R, Side: L R, LFE
Sampling rate : 48.0 kHz
Frame rate : 31.250 FPS (1536 spf)
Compression mode : Lossy
Stream size : 248 MiB (16%)
Language : English
Default : No
Forced : No
Text
ID : 4
Format : UTF-8
Codec ID : S_TEXT/UTF8
Codec ID/Info : UTF-8 Plain Text
Language : English
Default : No
Forced : No
Menu
00:00:00.000 : en:1
00:05:04.000 : en:2
00:10:19.000 : en:3
00:18:16.000 : en:4
00:22:25.000 : en:5
00:27:49.000 : en:6
00:34:27.000 : en:7
00:41:46.000 : en:8
00:47:07.000 : en:9
00:52:07.000 : en:10
00:56:11.000 : en:11
01:05:51.000 : en:12
01:09:00.000 : en:13
01:15:33.000 : en:14
01:21:43.000 : en:15
01:25:08.000 : en:16-
-

Скриншоты

--
-Релиз от: -Автор релиза: -
[free-tor.info].t20029.torrent 
Торрент: Зарегистрирован [ 2019-03-14 23:41 ] · 302C1B69A00F02DB8D6D41BC24AFA0678F5E06E0

Скачать .torrent

Скачать .torrent

16 KB

Статус: проверено
.torrent скачан: 11 раз
Размер: 1,48 GB
Правила
Похожие темы

[Профиль] [ЛС]
Показать сообщения:    
Ответить на тему

Текущее время: 27-Май 05:42

Часовой пояс: UTC + 4



Вы не можете начинать темы
Вы не можете отвечать на сообщения
Вы не можете редактировать свои сообщения
Вы не можете удалять свои сообщения
Вы не можете голосовать в опросах
Вы не можете прикреплять файлы к сообщениям
Вы можете скачивать файлы
Анализ веб сайтов Яндекс.Метрика