Крид 2 / Creed II (Стивен Кейпл мл.) [2018, драма, спорт, BDRip 1080p от OlLanDGroup | D, P | Лицензия]

Ответить на тему
Статистика раздачи [Обновить пиров]
Размер:  8,37 GB   |    Зарегистрирован:  4 месяца   |    .torrent скачан:  12 раз
Сидов:  939  [  0 KB/s  ]   Личеров:  45  [  0 KB/s  ]   Подробная статистика пиров
 
   
 
 
Автор Сообщение

Skorp10n ®

Оффлайн

 Активный раздающий 1 Активный раздающий 2
 Активный релизер 1000 Активный релизер 1500 Активный релизер 2000 Активный релизер 250 Активный релизер 3000 Активный релизер 500 Активный релизер 5000 Активный релизер Фильмов (1000) Активный релизер Фильмов (300) Активный релизер Фильмов (600) Активный Форумчанин 1 Активный Форумчанин 2 Активный Форумчанин 3 Активный Форумчанин 4 Друг трекера Карма 1000 Карма 1500 Карма 3000 Карма 500 Меценат Ни дня без новостей Орденосец 1 степени Орденосец 2 степени Орденосец 3 степени Почетный орденосец Почетный репортер С Новым 2016 Годом! С Новым 2017 Годом! С Новым 2018 Годом! С Новым 2019 Годом! Супер Мега Контер Квейк ТОП-10

Пол: Мужской

Стаж: 3 года 11 месяцев

Наличие запрета:

Сообщений: 10847

Откуда: Free-Tor.com

Отдача: не определено

Загрузка: не определено

Нажми

Создавать темы 15-Мар-2019 20:32

[Цитировать]

Информация о фильме- Название: Крид 2
Оригинальное название: Creed II
Год выпуска: 2018
Жанр: Драма, спорт
Выпущено: США, Metro-Goldwyn-Mayer Studios, New Line Cinema, Warner Bros.
Режиссер: Стивен Кейпл мл.
В ролях: Майкл Б. Джордан, Сильвестр Сталлоне, Тесса Томпсон, Филисия Рашад, Дольф Лундгрен, Флориан Мунтяну, Расселл Хорнсби, Вуд Харрис, Майло Вентимилья, Робби Джонс-О фильме: Возвращение на ринг потомственного боксера Адониса Крида, которого тренирует старый друг его отца и легендарный чемпион Рокки. Два поколения бойцов снова разбираются в своих жизненных драмах с помощью бокса.- -Качество: BDRip (1080p)
Видео: MPEG-4 AVC, 7743 Кбит/с, 1920x804, 23.976 Кадр/c
Аудио: Русский (AC3, 6 ch, 640 Кбит/с), (AC3, 2 ch, 192 Кбит/с), английский (AC3, 6 ch, 640 Кбит/с)
Размер: 8.37 ГБ
Продолжительность: 02:10:00
Перевод: Дублированный, профессиональный многоголосый
Субтитры: Русские, английские-Озвучивание - Дублированное (Лицензия), Профессиональное многоголосое (HDRezka Studio)
Субтитры: Русские (Forced), Английские (Full)
Сохранены оригинальные чаптеры как на Blu-Ray.
За лицензионный звук, большое спасибо BLUEBIRD-

x264

-x264 [info]: frame I:1251 Avg QP:11.85 size:187774
x264 [info]: frame P:44816 Avg QP:14.97 size: 77016
x264 [info]: frame B:140957 Avg QP:15.90 size: 27373
x264 [info]: consecutive B-frames: 3.7% 4.1% 14.4% 11.4% 15.9% 41.9% 5.3% 0.6% 1.1% 0.9% 0.9%
x264 [info]: mb I I16..4: 28.5% 47.6% 23.9%
x264 [info]: mb P I16..4: 5.4% 24.5% 3.1% P16..4: 24.7% 28.5% 7.5% 1.1% 0.1% skip: 5.2%
x264 [info]: mb B I16..4: 1.0% 3.2% 0.4% B16..8: 33.2% 22.8% 3.6% direct: 6.9% skip:28.9% L0:45.8% L1:43.0% BI:11.2%
x264 [info]: 8x8 transform intra:71.4% inter:44.9%
x264 [info]: direct mvs spatial:99.3% temporal:0.7%
x264 [info]: coded y,uvDC,uvAC intra: 81.7% 87.1% 74.3% inter: 25.5% 27.6% 12.6%
x264 [info]: i16 v,h,dc,p: 21% 9% 19% 50%
x264 [info]: i8 v,h,dc,ddl,ddr,vr,hd,vl,hu: 10% 9% 21% 8% 9% 10% 10% 10% 12%
x264 [info]: i4 v,h,dc,ddl,ddr,vr,hd,vl,hu: 28% 9% 21% 6% 8% 8% 7% 6% 7%
x264 [info]: i8c dc,h,v,p: 51% 22% 15% 12%
x264 [info]: Weighted P-Frames: Y:1.7% UV:1.2%
x264 [info]: ref P L0: 49.3% 6.6% 24.6% 8.8% 9.2% 1.5% 0.0%
x264 [info]: ref B L0: 71.4% 20.2% 6.4% 2.0%
x264 [info]: ref B L1: 91.7% 8.3%
x264 [info]: kb/s:7737.84-
-

Инфо-файл

-Общее
Уникальный идентификатор : 185734630234475193528176320744178807383 (0x8BBB30489A3F48E78C0D2BC9BB2F7257)
Полное имя : D:ЗагрузкиCreed.II.2018.x264.BDRip.(1080p).OlLanDGroup.mkv
Формат : Matroska
Версия формата : Version 4 / Version 2
Размер файла : 8,37 Гбайт
Продолжительность : 2 ч. 10 м.
Общий поток : 9213 Кбит/сек
Название фильма : Крид 2.2018.Rip by: ollan
Дата кодирования : UTC 2019-03-15 16:12:06
Программа кодирования : mkvmerge v6.5.0 ('Isn't she lovely') built on Oct 20 2013 12:50:05
Библиотека кодирования : libebml v1.3.0 + libmatroska v1.4.1
Обложка : Yes
Attachments : Cover - Creed II.png
Видео
Идентификатор : 1
Формат : AVC
Формат/Информация : Advanced Video Codec
Профиль формата : [email protected]
Настройки формата : CABAC / 5 Ref Frames
Параметр CABAC формата : Да
Параметр ReFrames формата : 5 кадров
Идентификатор кодека : V_MPEG4/ISO/AVC
Продолжительность : 2 ч. 10 м.
Битрейт : 7743 Кбит/сек
Ширина : 1920 пикселей
Высота : 804 пикселя
Соотношение сторон : 2,40:1
Режим частоты кадров : Постоянный
Частота кадров : 23,976 (24000/1001) кадра/сек
Цветовое пространство : YUV
Субдискретизация насыщенности : 4:2:0
Битовая глубина : 8 бит
Тип развёртки : Прогрессивная
Бит/(Пиксели*Кадры) : 0.209
Размер потока : 6,86 Гбайт (82%)
Библиотека кодирования : x264 core 146 r2538 121396c
Настройки программы : cabac=1 / ref=5 / deblock=1:-2:-3 / analyse=0x3:0x133 / me=umh / subme=11 / psy=1 / psy_rd=0.90:0.10 / mixed_ref=1 / me_range=64 / chroma_me=1 / trellis=2 / 8x8dct=1 / cqm=0 / deadzone=21,11 / fast_pskip=0 / chroma_qp_offset=-3 / threads=12 / lookahead_threads=3 / sliced_threads=0 / nr=0 / decimate=0 / interlaced=0 / bluray_compat=0 / constrained_intra=0 / bframes=10 / b_pyramid=2 / b_adapt=2 / b_bias=0 / direct=3 / weightb=1 / open_gop=0 / weightp=2 / keyint=240 / keyint_min=23 / scenecut=40 / intra_refresh=0 / rc_lookahead=40 / rc=2pass / mbtree=0 / bitrate=7743 / ratetol=1.0 / qcomp=0.60 / qpmin=0 / qpmax=69 / qpstep=4 / cplxblur=20.0 / qblur=0.5 / vbv_maxrate=50000 / vbv_bufsize=62500 / nal_hrd=none / filler=0 / ip_ratio=1.40 / pb_ratio=1.30 / aq=1:1.00
Язык : English
Default : Да
Forced : Нет
Аудио #1
Идентификатор : 2
Формат : AC-3
Формат/Информация : Audio Coding 3
Идентификатор кодека : A_AC3
Продолжительность : 2 ч. 10 м.
Вид битрейта : Постоянный
Битрейт : 640 Кбит/сек
Каналы : 6 каналов
Расположение каналов : Front: L C R, Side: L R, LFE
Частота : 48,0 КГц
Частота кадров : 31,250 кадров/сек (1536 SPF)
Битовая глубина : 16 бит
Метод сжатия : С потерями
Размер потока : 595 Мбайт (7%)
Заголовок : Дублированный (Лицензия)
Язык : Russian
Service kind : Complete Main
Default : Да
Forced : Нет
Аудио #2
Идентификатор : 3
Формат : AC-3
Формат/Информация : Audio Coding 3
Идентификатор кодека : A_AC3
Продолжительность : 2 ч. 10 м.
Вид битрейта : Постоянный
Битрейт : 192 Кбит/сек
Каналы : 2 канала
Расположение каналов : Front: L R
Частота : 48,0 КГц
Частота кадров : 31,250 кадров/сек (1536 SPF)
Битовая глубина : 16 бит
Метод сжатия : С потерями
Размер потока : 179 Мбайт (2%)
Заголовок : HDRezka Studio
Язык : Russian
Service kind : Complete Main
Default : Нет
Forced : Нет
Аудио #3
Идентификатор : 4
Формат : AC-3
Формат/Информация : Audio Coding 3
Идентификатор кодека : A_AC3
Продолжительность : 2 ч. 10 м.
Вид битрейта : Постоянный
Битрейт : 640 Кбит/сек
Каналы : 6 каналов
Расположение каналов : Front: L C R, Side: L R, LFE
Частота : 48,0 КГц
Частота кадров : 31,250 кадров/сек (1536 SPF)
Битовая глубина : 16 бит
Метод сжатия : С потерями
Размер потока : 595 Мбайт (7%)
Язык : English
Service kind : Complete Main
Default : Нет
Forced : Нет
Текст #1
Идентификатор : 5
Формат : UTF-8
Идентификатор кодека : S_TEXT/UTF8
Идентификатор кодека/Информация : UTF-8 Plain Text
Заголовок : Forced
Язык : Russian
Default : Да
Forced : Нет
Текст #2
Идентификатор : 6
Формат : UTF-8
Идентификатор кодека : S_TEXT/UTF8
Идентификатор кодека/Информация : UTF-8 Plain Text
Заголовок : Full
Язык : English
Default : Нет
Forced : Нет
Меню
00:00:00.000 : en:Chapter 01
00:11:33.150 : en:Chapter 02
00:20:06.163 : en:Chapter 03
00:33:28.006 : en:Chapter 04
00:43:49.126 : en:Chapter 05
00:57:51.885 : en:Chapter 06
01:06:38.869 : en:Chapter 07
01:20:12.516 : en:Chapter 08
01:31:01.956 : en:Chapter 09
01:40:14.216 : en:Chapter 10
01:50:31.458 : en:Chapter 11
02:02:55.910 : en:Chapter 12-
-

Скриншоты

--
-Релиз от: Rip by: -
[free-tor.info].t20070.torrent 
Торрент: Зарегистрирован [ 2019-03-15 20:32 ] · E69F6B4A743EF67D9AB83874DAA96412065422FD

Скачать .torrent

Скачать .torrent

22 KB

Статус: проверено
.torrent скачан: 12 раз
Размер: 8,37 GB
Правила
Похожие темы

[Профиль] [ЛС]
Показать сообщения:    
Ответить на тему

Текущее время: 16-Июл 04:00

Часовой пояс: UTC + 4



Вы не можете начинать темы
Вы не можете отвечать на сообщения
Вы не можете редактировать свои сообщения
Вы не можете удалять свои сообщения
Вы не можете голосовать в опросах
Вы не можете прикреплять файлы к сообщениям
Вы можете скачивать файлы
Анализ веб сайтов Яндекс.Метрика