Гринч / The Grinch (Ярроу Чейни, Скотт Моужер) [2018, мультфильм, фэнтези, комедия, семейный, полнометражный, BDRip 1080p от селезень | D, P | Лицензия]

Ответить на тему
Статистика раздачи [Обновить пиров]
Размер:  7,06 GB   |    Зарегистрирован:  3 месяца 7 дней   |    .torrent скачан:  6 раз
Сидов:  216  [  0 KB/s  ]   Личеров:  19  [  0 KB/s  ]   Подробная статистика пиров
 
   
 
 
Автор Сообщение

Skorp10n ®

Оффлайн

 Активный раздающий 1 Активный раздающий 2
 Активный релизер 1000 Активный релизер 1500 Активный релизер 2000 Активный релизер 250 Активный релизер 3000 Активный релизер 500 Активный релизер 5000 Активный релизер Фильмов (1000) Активный релизер Фильмов (300) Активный релизер Фильмов (600) Активный Форумчанин 1 Активный Форумчанин 2 Активный Форумчанин 3 Активный Форумчанин 4 Друг трекера Карма 1000 Карма 1500 Карма 3000 Карма 500 Меценат Ни дня без новостей Орденосец 1 степени Орденосец 2 степени Орденосец 3 степени Почетный орденосец Почетный репортер С Новым 2016 Годом! С Новым 2017 Годом! С Новым 2018 Годом! С Новым 2019 Годом! Супер Мега Контер Квейк ТОП-10

Пол: Мужской

Стаж: 3 года 11 месяцев

Наличие запрета:

Сообщений: 10847

Откуда: Free-Tor.com

Отдача: не определено

Загрузка: не определено

Нажми

Создавать темы 22-Мар-2019 22:34

[Цитировать]

Информация о фильме- Название: Гринч
Оригинальное название: The Grinch
Год выхода: 2018
Жанр: Мультфильм, фэнтези, комедия, семейный, полнометражный
Режиссер: Ярроу Чейни, Скотт Моужер
В ролях: Бенедикт Камбербэтч, Кэмерон Сили, Рашида Джонс, Фаррелл Уильямс, Тристан О`Хара, Кенан Томпсон, Сэм Лаваньино, Рамон Хэмилтон, Анджела Лэнсбери, Скарлет Эстевез, Майкл Битти, Лори Алан, Ивэн Кишияма- -О фильме: Любой бы на месте Гринча позеленел и взбесился. Как порядочный интроверт, он живёт в тёмной пещере на самой вершине горы подальше ото всех, но эти «все» готовят грандиознейшее празднование нового года. Они шумят, всё украшают и дико бесят. Кто бы отказал себе в удовольствии испортить праздник? Гринч решает украсть Новый год.-Страна: Китай, США, Франция, Япония
Студия: Illumination Entertainment , Perfect World Pictures Co., Universal Pictures
Продолжительность: 01:25:49
Перевод(ы):
#1: Дублированный | Лицензия

#2: Профессиональный многоголосый | HDRezka Studio-Качество: BDRip 1080p
Видео: MPEG-4 AVC, 1920x804, 10.5 Mbit/s, 23.976 fps
Звук:
Аудио #01: 48 kHz, AC3, 5.1, 640 Kbps | Лицензия | RUS |
Аудио #02: 48 kHz, AC3, 2.0, 192 Kbps | HDRezka Studio | RUS |
Аудио #03: 48 kHz, AC3, 5.1, 448 Kbps | Оригинал | ENG |
Субтитры: Русские (Forced, full), английские-

Скриншоты

--
-

MI

-General
Unique ID : 91179780694467197158399243092963995039 (0x4498964562441A700B4274A292FDAD9F)
Complete name : D:Video111The.Grinch.2018.Lic.BDRip.1080p.seleZen.mkv
Format : Matroska
Format version : Version 4
File size : 7.06 GiB
Duration : 1 h 25 min
Overall bit rate : 11.8 Mb/s
Movie name : The Grinch 2018 from селезень
Encoded date : UTC 2019-04-05 22:18:25
Writing application : mkvmerge v32.0.0 ('Astral Progressions') 64-bit
Writing library : libebml v1.3.7 + libmatroska v1.5.0
Video
ID : 1
Format : AVC
Format/Info : Advanced Video Codec
Format profile : [email protected]
Format settings : CABAC / 5 Ref Frames
Format settings, CABAC : Yes
Format settings, ReFrames : 5 frames
Codec ID : V_MPEG4/ISO/AVC
Duration : 1 h 25 min
Bit rate : 10.5 Mb/s
Width : 1 920 pixels
Height : 804 pixels
Display aspect ratio : 2.40:1
Frame rate mode : Constant
Frame rate : 23.976 (24000/1001) FPS
Color space : YUV
Chroma subsampling : 4:2:0
Bit depth : 8 bits
Scan type : Progressive
Bits/(Pixel*Frame) : 0.284
Stream size : 6.29 GiB (89%)
Title : seleZen
Writing library : x264 core 148 r2705kMod 3f5ed56
Encoding settings : cabac=1 / ref=5 / deblock=1:-2:-2 / analyse=0x3:0x133 / me=umh / subme=11 / psy=1 / fade_compensate=0.00 / psy_rd=1.20:0.05 / mixed_ref=1 / me_range=48 / chroma_me=1 / trellis=2 / 8x8dct=1 / cqm=0 / deadzone=21,11 / fast_pskip=0 / chroma_qp_offset=-3 / threads=12 / lookahead_threads=2 / sliced_threads=0 / nr=0 / decimate=0 / interlaced=0 / bluray_compat=0 / constrained_intra=0 / fgo=0 / bframes=8 / b_pyramid=2 / b_adapt=2 / b_bias=0 / direct=3 / weightb=1 / open_gop=0 / weightp=2 / keyint=240 / keyint_min=23 / scenecut=40 / intra_refresh=0 / rc_lookahead=50 / rc=2pass / mbtree=0 / bitrate=10500 / ratetol=1.0 / qcomp=0.60 / qpmin=0 / qpmax=51 / qpstep=4 / cplxblur=20.0 / qblur=0.5 / vbv_maxrate=50000 / vbv_bufsize=62500 / nal_hrd=none / filler=0 / ip_ratio=1.40 / pb_ratio=1.30 / aq=3:0.80
Language : English
Default : Yes
Forced : No
Audio #1
ID : 2
Format : AC-3
Format/Info : Audio Coding 3
Commercial name : Dolby Digital
Codec ID : A_AC3
Duration : 1 h 25 min
Bit rate mode : Constant
Bit rate : 640 kb/s
Channel(s) : 6 channels
Channel layout : L R C LFE Ls Rs
Sampling rate : 48.0 kHz
Frame rate : 31.250 FPS (1536 SPF)
Bit depth : 16 bits
Compression mode : Lossy
Stream size : 393 MiB (5%)
Title : Dub [License]
Language : Russian
Service kind : Complete Main
Default : Yes
Forced : Yes
Audio #2
ID : 3
Format : AC-3
Format/Info : Audio Coding 3
Commercial name : Dolby Digital
Codec ID : A_AC3
Duration : 1 h 25 min
Bit rate mode : Constant
Bit rate : 192 kb/s
Channel(s) : 2 channels
Channel layout : L R
Sampling rate : 48.0 kHz
Frame rate : 31.250 FPS (1536 SPF)
Bit depth : 16 bits
Compression mode : Lossy
Stream size : 118 MiB (2%)
Title : MVO [HDRezka Studio]
Language : Russian
Service kind : Complete Main
Default : No
Forced : No
Audio #3
ID : 4
Format : AC-3
Format/Info : Audio Coding 3
Commercial name : Dolby Digital
Codec ID : A_AC3
Duration : 1 h 25 min
Bit rate mode : Constant
Bit rate : 448 kb/s
Channel(s) : 6 channels
Channel layout : L R C LFE Ls Rs
Sampling rate : 48.0 kHz
Frame rate : 31.250 FPS (1536 SPF)
Bit depth : 16 bits
Compression mode : Lossy
Stream size : 275 MiB (4%)
Title : Original
Language : English
Service kind : Complete Main
Default : No
Forced : No
Text #1
ID : 5
Format : UTF-8
Codec ID : S_TEXT/UTF8
Codec ID/Info : UTF-8 Plain Text
Duration : 1 h 24 min
Bit rate : 1 b/s
Count of elements : 37
Stream size : 846 Bytes (0%)
Title : Forced
Language : Russian
Default : Yes
Forced : Yes
Text #2
ID : 6
Format : UTF-8
Codec ID : S_TEXT/UTF8
Codec ID/Info : UTF-8 Plain Text
Duration : 1 h 25 min
Bit rate : 61 b/s
Count of elements : 992
Stream size : 38.7 KiB (0%)
Title : Full
Language : Russian
Default : No
Forced : No
Text #3
ID : 7
Format : UTF-8
Codec ID : S_TEXT/UTF8
Codec ID/Info : UTF-8 Plain Text
Duration : 1 h 17 min
Bit rate : 52 b/s
Count of elements : 1024
Stream size : 30.0 KiB (0%)
Title : Full
Language : English
Default : No
Forced : No
Text #4
ID : 8
Format : UTF-8
Codec ID : S_TEXT/UTF8
Codec ID/Info : UTF-8 Plain Text
Duration : 1 h 20 min
Bit rate : 60 b/s
Count of elements : 1304
Stream size : 35.7 KiB (0%)
Title : SDH
Language : English
Default : No
Forced : No
Menu
00:00:00.000 : en:Chapter 1
00:05:40.298 : en:Chapter 2
00:10:35.927 : en:Chapter 3
00:14:14.103 : en:Chapter 4
00:17:45.106 : en:Chapter 5
00:22:19.296 : en:Chapter 6
00:26:28.337 : en:Chapter 7
00:30:45.093 : en:Chapter 8
00:34:46.584 : en:Chapter 9
00:38:37.190 : en:Chapter 10
00:44:40.595 : en:Chapter 11
00:47:27.678 : en:Chapter 12
00:52:37.488 : en:Chapter 13
00:56:33.181 : en:Chapter 14
01:01:04.995 : en:Chapter 15
01:05:34.639 : en:Chapter 16
01:07:23.456 : en:Chapter 17
01:12:14.914 : en:Chapter 18
01:14:12.782 : en:Chapter 19
01:18:08.309 : en:Chapter 20-
-Релиз от: -
[free-tor.info].t20174.torrent 
Торрент: Зарегистрирован [ 2019-04-08 13:06 ] · BBF719315FBB8B4498F1A519AD900CE43E68B071

Скачать .torrent

Скачать .torrent

142 KB

Статус: проверено
.torrent скачан: 6 раз
Размер: 7,06 GB
Правила
Похожие темы

[Профиль] [ЛС]
Показать сообщения:    
Ответить на тему

Текущее время: 16-Июл 03:58

Часовой пояс: UTC + 4



Вы не можете начинать темы
Вы не можете отвечать на сообщения
Вы не можете редактировать свои сообщения
Вы не можете удалять свои сообщения
Вы не можете голосовать в опросах
Вы не можете прикреплять файлы к сообщениям
Вы можете скачивать файлы
Анализ веб сайтов Яндекс.Метрика