Тройная угроза / Triple Threat (Джесси Джонсон) [2019, боевик, триллер, криминал, WEB-DL 1080p | iTunes]

Ответить на тему
Статистика раздачи [Обновить пиров]
Размер:  3,28 GB   |    Зарегистрирован:  3 месяца 24 дня   |    .torrent скачан:  17 раз
Сидов:  593  [  0 KB/s  ]   Личеров:  5  [  0 KB/s  ]   Подробная статистика пиров
 
   
 
 
Автор Сообщение

Skorp10n ®

Оффлайн

 Активный раздающий 1 Активный раздающий 2
 Активный релизер 1000 Активный релизер 1500 Активный релизер 2000 Активный релизер 250 Активный релизер 3000 Активный релизер 500 Активный релизер 5000 Активный релизер Фильмов (1000) Активный релизер Фильмов (300) Активный релизер Фильмов (600) Активный Форумчанин 1 Активный Форумчанин 2 Активный Форумчанин 3 Активный Форумчанин 4 Друг трекера Карма 1000 Карма 1500 Карма 3000 Карма 500 Меценат Ни дня без новостей Орденосец 1 степени Орденосец 2 степени Орденосец 3 степени Почетный орденосец Почетный репортер С Новым 2016 Годом! С Новым 2017 Годом! С Новым 2018 Годом! С Новым 2019 Годом! Супер Мега Контер Квейк ТОП-10

Пол: Мужской

Стаж: 3 года 11 месяцев

Наличие запрета:

Сообщений: 10847

Откуда: Free-Tor.com

Отдача: не определено

Загрузка: не определено

Нажми

Создавать темы 23-Мар-2019 14:36

[Цитировать]

Информация о фильме- Название: Тройная угроза
Оригинальное название: Triple Threat
Год выпуска: 2019
Жанр: Боевик, триллер, криминал
Режиссер: Джесси Джонсон
В ролях: Тони Джа, Ико Уайс, Тайгер Чэнь, Скотт Эдкинс, Селина Джейд, Майкл Джей Уайт, Доминик Ванденберг, Яанин Висмитананда, Майкл Вон, Дэниэл Уайт-О фильме: Международная преступная группировка посылает команду профессиональных киллеров убить дочь миллиардера, которая задумала положить конец их криминальной деятельности. Спасать девушку будут трое наёмников, в прошлом — успешных бойцов.- -Страна: Таиланд, Китай, США
Студия: Aurora Alliance Films, Hamilton Entertainment, Kungfuman Culture Media, SC Films Thailand Co
Продолжительность: 01:35:51
Перевод: Дублированный | iTunes-Файл-Качество: WEB-DL 1080p
Контейнер: MKV
Видео: MPEG-4 AVC, 4416 Кбит/с, 1916x802
Аудио: AC3, 6 ch, 384 Кбит/с
Субтитры: Нет-Релиз от: -

Скриншоты

--
-

MediaInfo

-General
Unique ID : 247939473963294976299015038493808599555 (0xBA8767DDEE69CB79BC9E0D9553372203)
Complete name : Triple.Threat.WEB-DL.1080p.ELEKTRI4KA.UNIONGANG.mkv
Format : Matroska
Format version : Version 2
File size : 3.28 GiB
Duration : 1 h 35 min
Overall bit rate : 4 898 kb/s
Movie name : Triple.Threat.WEB-DL.1080p.ELEKTRI4KA.UNIONGANG
Encoded date : UTC 2019-03-21 19:27:12
Writing application : mkvmerge v7.8.0 ('River Man') 32bit built on Apr 3 2015 12:11:22
Writing library : libebml v1.3.1 + libmatroska v1.4.2
Video
ID : 2
Format : AVC
Format/Info : Advanced Video Codec
Format profile : [email protected]
Format settings, CABAC : Yes
Format settings, RefFrames : 5 frames
Codec ID : V_MPEG4/ISO/AVC
Duration : 1 h 35 min
Bit rate : 4 416 kb/s
Width : 1 916 pixels
Height : 802 pixels
Display aspect ratio : 2.40:1
Frame rate mode : Constant
Frame rate : 23.976 (24000/1001) FPS
Color space : YUV
Chroma subsampling : 4:2:0
Bit depth : 8 bits
Scan type : Progressive
Bits/(Pixel*Frame) : 0.120
Stream size : 2.96 GiB (90%)
Title : Triple.Threat.WEB-DL.1080p.ELEKTRI4KA.UNIONGANG
Language : English
Default : Yes
Forced : No
Color range : Limited
Color primaries : BT.709
Transfer characteristics : BT.709
Matrix coefficients : BT.709
Audio
ID : 1
Format : AC-3
Format/Info : Audio Coding 3
Format settings, Endianness : Big
Codec ID : A_AC3
Duration : 1 h 35 min
Bit rate mode : Constant
Bit rate : 384 kb/s
Channel(s) : 6 channels
Channel positions : Front: L C R, Side: L R, LFE
Sampling rate : 48.0 kHz
Frame rate : 31.250 FPS (1536 SPF)
Bit depth : 16 bits
Compression mode : Lossy
Stream size : 263 MiB (8%)
Language : Russian
Service kind : Complete Main
Default : Yes
Forced : No
Menu
00:00:00.000 : en:Глава 1
00:13:42.989 : en:Глава 2
00:21:05.806 : en:Глава 3
00:28:40.009 : en:Глава 4
00:35:23.578 : en:Глава 5
00:46:56.020 : en:Глава 6
00:54:11.163 : en:Глава 7
01:00:25.369 : en:Глава 8
01:08:35.191 : en:Глава 9
01:13:33.781 : en:Глава 10
01:29:59.933 : en:Глава 11-
-
[free-tor.info].t20193.torrent 
Торрент: Зарегистрирован [ 2019-03-23 14:36 ] · 680C34923F1B0480064F17F9C22327AD323A8361

Скачать .torrent

Скачать .torrent

17 KB

Статус: проверено
.torrent скачан: 17 раз
Размер: 3,28 GB
Правила
Похожие темы

[Профиль] [ЛС]
Показать сообщения:    
Ответить на тему

Текущее время: 17-Июл 02:32

Часовой пояс: UTC + 4



Вы не можете начинать темы
Вы не можете отвечать на сообщения
Вы не можете редактировать свои сообщения
Вы не можете удалять свои сообщения
Вы не можете голосовать в опросах
Вы не можете прикреплять файлы к сообщениям
Вы можете скачивать файлы
Анализ веб сайтов Яндекс.Метрика