Дом вверх дном / Les dents, pipi et au lit (Эммануэль Жилибер) [2018, комедия, BDRip 1080p от селезень | iTunes]

Ответить на тему
Статистика раздачи [Обновить пиров]
Размер:  10,41 GB   |    Зарегистрирован:  3 месяца 24 дня   |    .torrent скачан:  23 раза
Сидов:  136  [  0 KB/s  ]   Личеров:  4  [  0 KB/s  ]   Подробная статистика пиров
 
   
 
 
Автор Сообщение

Skorp10n ®

Оффлайн

 Активный раздающий 1 Активный раздающий 2
 Активный релизер 1000 Активный релизер 1500 Активный релизер 2000 Активный релизер 250 Активный релизер 3000 Активный релизер 500 Активный релизер 5000 Активный релизер Фильмов (1000) Активный релизер Фильмов (300) Активный релизер Фильмов (600) Активный Форумчанин 1 Активный Форумчанин 2 Активный Форумчанин 3 Активный Форумчанин 4 Друг трекера Карма 1000 Карма 1500 Карма 3000 Карма 500 Меценат Ни дня без новостей Орденосец 1 степени Орденосец 2 степени Орденосец 3 степени Почетный орденосец Почетный репортер С Новым 2016 Годом! С Новым 2017 Годом! С Новым 2018 Годом! С Новым 2019 Годом! Супер Мега Контер Квейк ТОП-10

Пол: Мужской

Стаж: 3 года 11 месяцев

Наличие запрета:

Сообщений: 10847

Откуда: Free-Tor.com

Отдача: не определено

Загрузка: не определено

Нажми

Создавать темы 23-Мар-2019 14:44

[Цитировать]

Информация о фильме- Название: Дом вверх дном
Оригинальное название: Les dents, pipi et au lit
Год выхода: 2018
Жанр: комедия
Режиссер: Эммануэль Жилибер
В ролях: Арно Дюкре, Луиз Бургуан, Тимео Болланд, Саския де Мелу Диллэ, Лорен Ферраро, Микаэль Коэн, Колетт Крафф, Эрве Маскелье, Роби Шинаси, Джоана Прейсс- -О фильме: Антуан — убеждённый холостяк, соблазнитель и любитель вечеринок. Он живёт в роскошных парижских апартаментах со своим приятелем Томасом. Когда Томас переезжает в Лос-Анджелес, он находит Антуану нового сожителя на замену: «Жанна, рост 170 см, голубые глаза». Описание внешности выглядит весьма соблазнительным, вот только Антуан никак не мог предположить, что обаятельная Жанна приедет не одна. С ней окажутся восьмилетний Тео и пятилетняя Лу. Вовсе не собиравшемуся становиться отцом Антуану придётся испытать на себе все «прелести» семейной жизни…-Страна: Франция
Студия: CG Cinema, Cofinova 13, M6, M6 Films, SND, W9
Продолжительность: 01:44:55
Перевод: Дублированный | iTunes-Качество: BDRip 1080p
Видео: MPEG-4 AVC, 1920x804, 13.2 Mbit/s, 24 fps
Звук:
Аудио #01: 48 kHz, AC3, 5.1, 384 Kbps | iTunes | RUS |
Аудио #02: 48 kHz, AC3, 5.1, 640 Kbps | Оригинал | FRE | -

Скриншоты

--
-

MI

-General
Unique ID : 7225651637675769756159015344479393741 (0x56F9C2177A36E49811447909E77D7CD)
Complete name : D:Video111Les.Dents.Pipi.Et.Au.Lit.2018.BDRip.1080p.seleZen.mkv
Format : Matroska
Format version : Version 4
File size : 10.4 GiB
Duration : 1 h 44 min
Overall bit rate : 14.2 Mb/s
Movie name : Les Dents Pipi Et Au Lit 2018 from селезень
Encoded date : UTC 2019-03-22 20:10:56
Writing application : mkvmerge v32.0.0 ('Astral Progressions') 64-bit
Writing library : libebml v1.3.7 + libmatroska v1.5.0
Video
ID : 1
Format : AVC
Format/Info : Advanced Video Codec
Format profile : [email protected]
Format settings : CABAC / 5 Ref Frames
Format settings, CABAC : Yes
Format settings, ReFrames : 5 frames
Codec ID : V_MPEG4/ISO/AVC
Duration : 1 h 44 min
Bit rate : 13.2 Mb/s
Width : 1 920 pixels
Height : 804 pixels
Display aspect ratio : 2.40:1
Frame rate mode : Constant
Frame rate : 24.000 FPS
Color space : YUV
Chroma subsampling : 4:2:0
Bit depth : 8 bits
Scan type : Progressive
Bits/(Pixel*Frame) : 0.356
Stream size : 9.66 GiB (93%)
Title : seleZen
Writing library : x264 core 148 r2705kMod 3f5ed56
Encoding settings : cabac=1 / ref=5 / deblock=1:-2:-2 / analyse=0x3:0x133 / me=umh / subme=10 / psy=1 / fade_compensate=0.00 / psy_rd=1.20:0.05 / mixed_ref=1 / me_range=24 / chroma_me=1 / trellis=2 / 8x8dct=1 / cqm=0 / deadzone=21,11 / fast_pskip=0 / chroma_qp_offset=-3 / threads=12 / lookahead_threads=2 / sliced_threads=0 / nr=0 / decimate=0 / interlaced=0 / bluray_compat=0 / constrained_intra=0 / fgo=0 / bframes=8 / b_pyramid=2 / b_adapt=2 / b_bias=0 / direct=3 / weightb=1 / open_gop=0 / weightp=2 / keyint=240 / keyint_min=24 / scenecut=40 / intra_refresh=0 / rc_lookahead=50 / rc=2pass / mbtree=0 / bitrate=13200 / ratetol=1.0 / qcomp=0.60 / qpmin=0 / qpmax=51 / qpstep=4 / cplxblur=20.0 / qblur=0.5 / vbv_maxrate=50000 / vbv_bufsize=62500 / nal_hrd=none / filler=0 / ip_ratio=1.40 / pb_ratio=1.30 / aq=3:0.80
Language : French
Default : Yes
Forced : No
Audio #1
ID : 2
Format : AC-3
Format/Info : Audio Coding 3
Commercial name : Dolby Digital
Codec ID : A_AC3
Duration : 1 h 44 min
Bit rate mode : Constant
Bit rate : 384 kb/s
Channel(s) : 6 channels
Channel layout : L R C LFE Ls Rs
Sampling rate : 48.0 kHz
Frame rate : 31.250 FPS (1536 SPF)
Bit depth : 16 bits
Compression mode : Lossy
Stream size : 288 MiB (3%)
Title : iTunes
Language : Russian
Service kind : Complete Main
Default : Yes
Forced : Yes
Audio #2
ID : 3
Format : AC-3
Format/Info : Audio Coding 3
Commercial name : Dolby Digital
Codec ID : A_AC3
Duration : 1 h 44 min
Bit rate mode : Constant
Bit rate : 640 kb/s
Channel(s) : 6 channels
Channel layout : L R C LFE Ls Rs
Sampling rate : 48.0 kHz
Frame rate : 31.250 FPS (1536 SPF)
Bit depth : 16 bits
Compression mode : Lossy
Stream size : 480 MiB (5%)
Title : Original
Language : French
Service kind : Complete Main
Default : No
Forced : No
Menu
00:00:00.000 : en:Chapter 1
00:07:05.208 : en:Chapter 2
00:18:51.250 : en:Chapter 3
00:24:42.791 : en:Chapter 4
00:33:08.458 : en:Chapter 5
00:41:01.250 : en:Chapter 6
00:50:56.916 : en:Chapter 7
00:55:01.458 : en:Chapter 8
01:04:05.250 : en:Chapter 9
01:12:38.708 : en:Chapter 10
01:21:47.958 : en:Chapter 11
01:32:48.375 : en:Chapter 12-
-Релиз от: -
[free-tor.info].t20195.torrent 
Торрент: Зарегистрирован [ 2019-03-23 14:44 ] · BA9DF635D3E752331170B897E33A1B5F0CAD792F

Скачать .torrent

Скачать .torrent

105 KB

Статус: проверено
.torrent скачан: 23 раз
Размер: 10,41 GB
Правила
Volodymyr(23-Мар-19)
Похожие темы

[Профиль] [ЛС]
Показать сообщения:    
Ответить на тему

Текущее время: 17-Июл 02:40

Часовой пояс: UTC + 4



Вы не можете начинать темы
Вы не можете отвечать на сообщения
Вы не можете редактировать свои сообщения
Вы не можете удалять свои сообщения
Вы не можете голосовать в опросах
Вы не можете прикреплять файлы к сообщениям
Вы можете скачивать файлы
Анализ веб сайтов Яндекс.Метрика