Месть Лиззи Борден / Lizzie (Крэйг Уилльям Макнейлл) [2018, триллер, драма, криминал, детектив, биография, BDRip 1080p | D, P | iTunes]

Ответить на тему
Статистика раздачи [Обновить пиров]
Размер:  6,65 GB   |    Зарегистрирован:  3 месяца 24 дня   |    .torrent скачан:  6 раз
Сидов:  101  [  0 KB/s  ]   Личеров:  7  [  0 KB/s  ]   Подробная статистика пиров
 
   
 
 
Автор Сообщение

Skorp10n ®

Оффлайн

 Активный раздающий 1 Активный раздающий 2
 Активный релизер 1000 Активный релизер 1500 Активный релизер 2000 Активный релизер 250 Активный релизер 3000 Активный релизер 500 Активный релизер 5000 Активный релизер Фильмов (1000) Активный релизер Фильмов (300) Активный релизер Фильмов (600) Активный Форумчанин 1 Активный Форумчанин 2 Активный Форумчанин 3 Активный Форумчанин 4 Друг трекера Карма 1000 Карма 1500 Карма 3000 Карма 500 Меценат Ни дня без новостей Орденосец 1 степени Орденосец 2 степени Орденосец 3 степени Почетный орденосец Почетный репортер С Новым 2016 Годом! С Новым 2017 Годом! С Новым 2018 Годом! С Новым 2019 Годом! Супер Мега Контер Квейк ТОП-10

Пол: Мужской

Стаж: 3 года 11 месяцев

Наличие запрета:

Сообщений: 10847

Откуда: Free-Tor.com

Отдача: не определено

Загрузка: не определено

Нажми

Создавать темы 23-Мар-2019 14:52

[Цитировать]

Информация о фильме- Название: Месть Лиззи Борден
Оригинальное название: Lizzie
Год выхода: 2018
Жанр: Триллер, драма, криминал, детектив, биография
Страна: США
Переводы:
#1: Дублированный | iTunes
#2: Профессиональный (многоголосый закадровый) | HDRezka Studio
Продолжительность: 01:45:41
Режиссер: Крэйг Уилльям Макнейлл
В ролях: Хлоя Севиньи, Кристен Стюарт, Джефф Перри, Фиона Шоу, Джейми Шеридан, Тара Окс, Ким Диккенс, Дэниэл Уочс, Дэнис О’Хэр, Дж.Е. Мацер и др.-О фильме: 4 августа 1892 года усадьба состоятельной семьи Борден огласилась дикими криками. Служанка обнаружила изуродованные и окровавленные тела главы семейства и его жены. Кто-то нанес супружеской паре десятки зверских ударов топором. Следов ограбления не нашли, и основной подозреваемой стала девушка, чьи отец и мачеха были убиты с поразительной жестокостью. Расследование этого преступления вылилось в одно из самых известных и невероятных дел в истории американской криминалистики, в легенду о насилии и мести, о тайной и запретной страсти.- -Файл-Качество: BDRip 1080p
Видео: MPEG-4 AVC, 1920x804, 7984 kbps, 23,976 fps
Звук#1: русский, AC3, 5.1 ch, 48 kHz, 384 kbps | iTunes
Звук#2: русский, AC3, 2.0 ch, 48 kHz, 192 kbps | HDRezka Studio
Звук#3: английский, AC3, 5.1 ch, 48 kHz, 448 kbps | оригинал
Субтитры: английские (полные)-

MI

-General
Уникальный идентификатор : 223979029744461005697045920051902626535 (0xA880CAC279D00F72954E5AAFC31D3AE7)
Полное имя : E:TorrentLizzieBDRip1080p.mkv
Формат : Matroska
Версия формата : Version 4 / Version 2
Размер файла : 6.65 GiB
Продолжительность : 1 h 45 min
Общий поток : 9 009 kb/s
Дата кодирования : UTC 2019-03-22 19:28:30
Программа кодирования : mkvmerge v9.5.0 ('Quiet Fire') 64bit
Библиотека кодирования : libebml v1.3.4 + libmatroska v1.4.5
Video
Идентификатор : 1
Формат : AVC
Формат/Информация : Advanced Video Codec
Профиль формата : [email protected]
Настройки формата : CABAC / 5 Ref Frames
Параметр CABAC формата : Yes
Параметр RefFrames формата : 5 frames
Идентификатор кодека : V_MPEG4/ISO/AVC
Продолжительность : 1 h 45 min
Битрейт : 7 984 kb/s
Ширина : 1 920 pixels
Высота : 804 pixels
Соотношение сторон : 2.40:1
Режим частоты кадров : Constant
Частота кадров : 23.976 (24000/1001) FPS
Цветовое пространство : YUV
Субдискретизация насыщенности : 4:2:0
Битовая глубина : 8 bits
Тип развёртки : Progressive
Бит/(Пиксели*Кадры) : 0.216
Размер потока : 5.89 GiB (89%)
Библиотека кодирования : x264 core 157 r2935 545de2f
Настройки программы : cabac=1 / ref=5 / deblock=1:-1:-1 / analyse=0x3:0x113 / me=umh / subme=11 / psy=1 / psy_rd=1.00:0.00 / mixed_ref=1 / me_range=32 / chroma_me=1 / trellis=2 / 8x8dct=1 / cqm=0 / deadzone=21,11 / fast_pskip=0 / chroma_qp_offset=-2 / threads=9 / lookahead_threads=2 / sliced_threads=0 / nr=0 / decimate=0 / interlaced=0 / bluray_compat=0 / constrained_intra=0 / bframes=14 / b_pyramid=2 / b_adapt=2 / b_bias=0 / direct=3 / weightb=1 / open_gop=0 / weightp=2 / keyint=240 / keyint_min=24 / scenecut=40 / intra_refresh=0 / rc_lookahead=120 / rc=2pass / mbtree=0 / bitrate=7984 / ratetol=1.0 / qcomp=0.70 / qpmin=0 / qpmax=69 / qpstep=4 / cplxblur=20.0 / qblur=0.5 / vbv_maxrate=50000 / vbv_bufsize=62500 / nal_hrd=none / filler=0 / ip_ratio=1.40 / pb_ratio=1.30 / aq=3:0.80
Язык : English
Default : Yes
Forced : No
Цветовой диапазон : Limited
Основные цвета : BT.709
Характеристики трансфера : BT.709
Коэффициенты матрицы : BT.709
Audio #1
Идентификатор : 2
Формат : AC-3
Формат/Информация : Audio Coding 3
Идентификатор кодека : A_AC3
Продолжительность : 1 h 45 min
Вид битрейта : Constant
Битрейт : 384 kb/s
Каналы : 6 channels
Расположение каналов : Front: L C R, Side: L R, LFE
Частота : 48.0 kHz
Частота кадров : 31.250 FPS (1536 SPF)
Битовая глубина : 16 bits
Метод сжатия : Lossy
Размер потока : 290 MiB (4%)
Заголовок : iTunes
Язык : Russian
Default : Yes
Forced : No
Audio #2
Идентификатор : 3
Формат : AC-3
Формат/Информация : Audio Coding 3
Идентификатор кодека : A_AC3
Продолжительность : 1 h 45 min
Вид битрейта : Constant
Битрейт : 192 kb/s
Каналы : 2 channels
Расположение каналов : Front: L R
Частота : 48.0 kHz
Частота кадров : 31.250 FPS (1536 SPF)
Битовая глубина : 16 bits
Метод сжатия : Lossy
Размер потока : 145 MiB (2%)
Заголовок : HDRezka
Язык : Russian
Default : No
Forced : No
Audio #3
Идентификатор : 4
Формат : AC-3
Формат/Информация : Audio Coding 3
Идентификатор кодека : A_AC3
Продолжительность : 1 h 45 min
Вид битрейта : Constant
Битрейт : 448 kb/s
Каналы : 6 channels
Расположение каналов : Front: L C R, Side: L R, LFE
Частота : 48.0 kHz
Частота кадров : 31.250 FPS (1536 SPF)
Битовая глубина : 16 bits
Метод сжатия : Lossy
Размер потока : 339 MiB (5%)
Язык : English
Default : No
Forced : No
Text
Идентификатор : 5
Формат : UTF-8
Идентификатор кодека : S_TEXT/UTF8
Идентификатор кодека/Информация : UTF-8 Plain Text
Продолжительность : 1 h 34 min
Битрейт : 28 b/s
ElementCount : 642
Размер потока : 19.8 KiB (0%)
Заголовок : engFull
Язык : English
Default : No
Forced : No
Menu
00:00:00.000 : :Chapter 00
00:00:12.012 : :Chapter 01
00:06:25.468 : :Chapter 02
00:12:39.258 : :Chapter 03
00:19:10.023 : :Chapter 04
00:27:34.653 : :Chapter 05
00:36:35.359 : :Chapter 06
00:41:07.673 : :Chapter 07
00:46:37.711 : :Chapter 08
00:53:02.929 : :Chapter 09
01:00:24.787 : :Chapter 10
01:06:01.540 : :Chapter 11
01:12:29.803 : :Chapter 12
01:19:11.496 : :Chapter 13
01:27:13.937 : :Chapter 14
01:33:06.372 : :Chapter 15
01:39:43.852 : :Chapter 16-
-

Скриншоты

--
-Рип и релиз от: -
[free-tor.info].t20200.torrent 
Торрент: Зарегистрирован [ 2019-03-23 14:52 ] · 5975A2A047E2BDAF1AF88D8B8EC2FB57FFD18AAA

Скачать .torrent

Скачать .torrent

18 KB

Статус: проверено
.torrent скачан: 6 раз
Размер: 6,65 GB
Правила
Похожие темы

[Профиль] [ЛС]
Показать сообщения:    
Ответить на тему

Текущее время: 17-Июл 02:38

Часовой пояс: UTC + 4



Вы не можете начинать темы
Вы не можете отвечать на сообщения
Вы не можете редактировать свои сообщения
Вы не можете удалять свои сообщения
Вы не можете голосовать в опросах
Вы не можете прикреплять файлы к сообщениям
Вы можете скачивать файлы
Анализ веб сайтов Яндекс.Метрика