Капернаум / Capharnaüm (Надин Лабаки) [2018, драма, BDRip 1080p | iTunes]

Ответить на тему
Статистика раздачи [Обновить пиров]
Размер:  13,4 GB   |    Зарегистрирован:  3 месяца 24 дня   |    .torrent скачан:  13 раз
Сидов:  879  [  0 KB/s  ]   Личеров:  70  [  0 KB/s  ]   Подробная статистика пиров
 
   
 
 
Автор Сообщение

Skorp10n ®

Оффлайн

 Активный раздающий 1 Активный раздающий 2
 Активный релизер 1000 Активный релизер 1500 Активный релизер 2000 Активный релизер 250 Активный релизер 3000 Активный релизер 500 Активный релизер 5000 Активный релизер Фильмов (1000) Активный релизер Фильмов (300) Активный релизер Фильмов (600) Активный Форумчанин 1 Активный Форумчанин 2 Активный Форумчанин 3 Активный Форумчанин 4 Друг трекера Карма 1000 Карма 1500 Карма 3000 Карма 500 Меценат Ни дня без новостей Орденосец 1 степени Орденосец 2 степени Орденосец 3 степени Почетный орденосец Почетный репортер С Новым 2016 Годом! С Новым 2017 Годом! С Новым 2018 Годом! С Новым 2019 Годом! Супер Мега Контер Квейк ТОП-10

Пол: Мужской

Стаж: 3 года 11 месяцев

Наличие запрета:

Сообщений: 10847

Откуда: Free-Tor.com

Отдача: не определено

Загрузка: не определено

Нажми

Создавать темы 23-Мар-2019 15:00

[Цитировать]

Информация о фильме- Название: Капернаум
Оригинальное название: Capharnaüm
Год выпуска: 2018
Жанр: Драма
Режиссер: Надин Лабаки
В ролях: Зейн Аль Раффеа, Йорданос Шифероу, Болуватифе Банколе, Кавсар Аль Хаддад, Фади Юсеф, Хаита Иззам, Алаа Шушниех, Надин Лабаки, Елиас Хури, Нур Эль Хуссейни-Описание: Двенадцатилетний Зейн не может точно сказать, сколько у него братьев и сестер, но уверен, что детей в его семье должно было быть меньше. Несмотря на юный возраст, Зейн нелегально работает, помогает старшим, ищет деньги и документы на эмиграцию в Швецию. Он смотрит на мир с нескрываемой ненавистью. Ему есть что ненавидеть. Дети на улицах Бейрута попрошайничают, девочек как можно раньше продают замуж, сам он вынужден есть что попало, спать, где придется, и самое главное - он только что получил пятилетний срок. В тюрьме Зейн подаёт в суд на родителей. За то, что они дали ему жизнь.- -Страна: Ливан, Франция, США
Продолжительность: 02:06:28
Перевод: Профессиональный (многоголосый, закадровый) | iTunes-Файл-Качество: BDRip 1080p
Формат: MKV
Видео: MPEG-4 AVC, 1920x808, 13800 kbps, 23.976 fps
Аудио 1: Russian, AC3, 16 bits, 48 Khz, 5.1 ch, 384 Kbps - MVO, iTunes
Аудио 2: Arabic, AC3, 16 bits, 48 Khz, 5.1 ch, 640 Kbps - Original
Субтитры: Французские-

MediaInfo

-General
Unique ID : 201710669801488846324948981524745411776 (0x97C00FD9284D0B8DB9DAF6F2D82BDCC0)
Complete name : Capharnaüm 2018 1080p BluRay DD5.1 ru.mkv
Format : Matroska
Format version : Version 4 / Version 2
File size : 13.4 GiB
Duration : 2 h 6 min
Overall bit rate : 15.2 Mb/s
Movie name : Nadine Labaki - Capharnaüm (2018)
Encoded date : UTC 2019-03-22 19:21:08
Writing application : mkvmerge v9.6.0 ('Slave To Your Mind') 64bit
Writing library : libebml v1.3.4 + libmatroska v1.4.5
Video
ID : 1
Format : AVC
Format/Info : Advanced Video Codec
Format profile : [email protected]
Format settings, CABAC : Yes
Format settings, RefFrames : 5 frames
Codec ID : V_MPEG4/ISO/AVC
Duration : 2 h 6 min
Bit rate : 13.8 Mb/s
Width : 1 920 pixels
Height : 808 pixels
Display aspect ratio : 2.40:1
Frame rate mode : Constant
Frame rate : 23.976 (24000/1001) FPS
Color space : YUV
Chroma subsampling : 4:2:0
Bit depth : 8 bits
Scan type : Progressive
Bits/(Pixel*Frame) : 0.372
Stream size : 12.2 GiB (91%)
Title : -EA
Writing library : x264 core 157 r2935 545de2f
Encoding settings : cabac=1 / ref=5 / deblock=1:-3:-3 / analyse=0x3:0x113 / me=umh / subme=10 / psy=1 / psy_rd=1.02:0.00 / mixed_ref=1 / me_range=32 / chroma_me=1 / trellis=2 / 8x8dct=1 / cqm=0 / deadzone=21,11 / fast_pskip=0 / chroma_qp_offset=-2 / threads=24 / lookahead_threads=4 / sliced_threads=0 / nr=0 / decimate=0 / interlaced=0 / bluray_compat=0 / constrained_intra=0 / bframes=8 / b_pyramid=2 / b_adapt=2 / b_bias=0 / direct=3 / weightb=1 / open_gop=0 / weightp=2 / keyint=240 / keyint_min=23 / scenecut=40 / intra_refresh=0 / rc_lookahead=60 / rc=crf / mbtree=0 / crf=19.5 / qcomp=0.65 / qpmin=0 / qpmax=69 / qpstep=4 / vbv_maxrate=62500 / vbv_bufsize=78125 / crf_max=0.0 / nal_hrd=none / filler=0 / ip_ratio=1.40 / pb_ratio=1.30 / aq=3:0.85
Language : Arabic
Default : Yes
Forced : No
Color range : Limited
Color primaries : BT.709
Transfer characteristics : BT.709
Matrix coefficients : BT.709
Audio #1
ID : 2
Format : AC-3
Format/Info : Audio Coding 3
Format settings, Endianness : Big
Codec ID : A_AC3
Duration : 2 h 6 min
Bit rate mode : Constant
Bit rate : 384 kb/s
Channel(s) : 6 channels
Channel positions : Front: L C R, Side: L R, LFE
Sampling rate : 48.0 kHz
Frame rate : 31.250 FPS (1536 SPF)
Bit depth : 16 bits
Compression mode : Lossy
Stream size : 347 MiB (3%)
Language : Russian
Service kind : Complete Main
Default : Yes
Forced : No
Audio #2
ID : 3
Format : AC-3
Format/Info : Audio Coding 3
Format settings, Endianness : Big
Codec ID : A_AC3
Duration : 2 h 6 min
Bit rate mode : Constant
Bit rate : 640 kb/s
Channel(s) : 6 channels
Channel positions : Front: L C R, Side: L R, LFE
Sampling rate : 48.0 kHz
Frame rate : 31.250 FPS (1536 SPF)
Bit depth : 16 bits
Compression mode : Lossy
Stream size : 579 MiB (4%)
Language : Arabic
Service kind : Complete Main
Default : No
Forced : No
Text
ID : 4
Format : UTF-8
Codec ID : S_TEXT/UTF8
Codec ID/Info : UTF-8 Plain Text
Title : srt
Language : French
Default : No
Forced : No
Menu
00:00:00.000 : :Chapter 01
00:08:13.076 : :Chapter 02
00:14:51.808 : :Chapter 03
00:21:46.680 : :Chapter 04
00:29:05.827 : :Chapter 05
00:38:07.035 : :Chapter 06
00:46:42.133 : :Chapter 07
00:55:30.452 : :Chapter 08
01:03:45.405 : :Chapter 09
01:11:39.629 : :Chapter 10
01:19:21.215 : :Chapter 11
01:27:07.305 : :Chapter 12
01:36:28.241 : :Chapter 13
01:45:19.313 : :Chapter 14
01:54:02.044 : :Chapter 15
02:00:48.658 : :Chapter 16-
-

Скриншоты

--
-
[free-tor.info].t20203.torrent 
Торрент: Зарегистрирован [ 2019-03-23 15:00 ] · E96717A3ADFF4046510D6D82A053BC561D660F99

Скачать .torrent

Скачать .torrent

68 KB

Статус: проверено
.torrent скачан: 13 раз
Размер: 13,4 GB
Правила
Похожие темы

[Профиль] [ЛС]
Показать сообщения:    
Ответить на тему

Текущее время: 17-Июл 02:18

Часовой пояс: UTC + 4



Вы не можете начинать темы
Вы не можете отвечать на сообщения
Вы не можете редактировать свои сообщения
Вы не можете удалять свои сообщения
Вы не можете голосовать в опросах
Вы не можете прикреплять файлы к сообщениям
Вы можете скачивать файлы
Анализ веб сайтов Яндекс.Метрика