Начни сначала / Second Act (Питер Сигал) [2018, драма, мелодрама, комедия, BDRip 1080p | D, P | iTunes]

Ответить на тему
Статистика раздачи [Обновить пиров]
Размер:  8,36 GB   |    Зарегистрирован:  3 месяца 23 дня   |    .torrent скачан:  17 раз
Сидов:  342  [  0 KB/s  ]   Личеров:  31  [  0 KB/s  ]   Подробная статистика пиров
 
   
 
 
Автор Сообщение

Skorp10n ®

Оффлайн

 Активный раздающий 1 Активный раздающий 2
 Активный релизер 1000 Активный релизер 1500 Активный релизер 2000 Активный релизер 250 Активный релизер 3000 Активный релизер 500 Активный релизер 5000 Активный релизер Фильмов (1000) Активный релизер Фильмов (300) Активный релизер Фильмов (600) Активный Форумчанин 1 Активный Форумчанин 2 Активный Форумчанин 3 Активный Форумчанин 4 Друг трекера Карма 1000 Карма 1500 Карма 3000 Карма 500 Меценат Ни дня без новостей Орденосец 1 степени Орденосец 2 степени Орденосец 3 степени Почетный орденосец Почетный репортер С Новым 2016 Годом! С Новым 2017 Годом! С Новым 2018 Годом! С Новым 2019 Годом! Супер Мега Контер Квейк ТОП-10

Пол: Мужской

Стаж: 3 года 11 месяцев

Наличие запрета:

Сообщений: 10847

Откуда: Free-Tor.com

Отдача: не определено

Загрузка: не определено

Нажми

Создавать темы 23-Мар-2019 15:25

[Цитировать]

Информация о фильме- Название: Начни сначала
Оригинальное название: Second Act
Год выхода: 2018
Жанр: драма, мелодрама, комедия
Режиссер: Питер Сигал
В ролях: Дженнифер Лопес, Ванесса Энн Хадженс, Леа Ремини, Трит Уильямс, Майло Вентимилья, Аннали Эшфорд, Шарлин Йи, Алан Айзенберг, Фредди Строма, Дэйв Фоли-О фильме:-Когда Майя уже перестала надеяться, что ее мечты осуществятся, она случайно получает работу в большой корпорации. Теперь у нее есть шанс доказать снобам с Мэдисон Авеню, что врожденный талант и блестящий креатив так же важны, как и диплом престижного университета. И не имеет значения, что у тебя за спиной, — ведь никогда не поздно начать сначала!- -Страна: США
Студия: Robert Simonds Company, The
Продолжительность: 01:44:01
Перевод: Дублированный, Профессиональный многоголосый-Файл-Кодек: h.264
Качество: BDRip 1080p | D, P
Видео: MPEG-4 AVC, 9423 Кбит/с, 1920x808, 23,976 кадр/с
Звук:
Русский (AC3, 6 ch, 384 Кбит/с) / Дублированный (iTunes)
Русский (AC3, 2 ch, 192 Кбит/с) / Профессиональный многоголосый (HDrezka Studio)
Английский (DTS, 6 ch, 1509 Кбит/с)
Субтитры: Английские (Full, SDH)-

MI

-General
Unique ID : 12306391196080371795115179249110926802 (0x9421FEE6212F2E7F53B48F4DA2CC5D2)
Complete name : C:UsersPublicVideosSample VideosFilmySecond.act.2018.1080p.BDRip.Silverok.mkv
Format : Matroska
Format version : Version 4
File size : 8.36 GiB
Duration : 1 h 44 min
Overall bit rate : 11.5 Mb/s
Encoded date : UTC 2019-03-21 16:35:04
Writing application : mkvmerge v30.1.0 ('Forever And More') 64-bit
Writing library : libebml v1.3.6 + libmatroska v1.4.9
Cover : Yes
Attachments : cover.jpg
Video
ID : 1
Format : AVC
Format/Info : Advanced Video Codec
Format profile : [email protected]
Format settings : CABAC / 5 Ref Frames
Format settings, CABAC : Yes
Format settings, RefFrames : 5 frames
Codec ID : V_MPEG4/ISO/AVC
Duration : 1 h 44 min
Bit rate : 9 423 kb/s
Width : 1 920 pixels
Height : 808 pixels
Display aspect ratio : 2.40:1
Frame rate mode : Constant
Frame rate : 23.976 (24000/1001) FPS
Color space : YUV
Chroma subsampling : 4:2:0
Bit depth : 8 bits
Scan type : Progressive
Bits/(Pixel*Frame) : 0.253
Stream size : 6.84 GiB (82%)
Title : BDRip.1080p by Silverok
Writing library : x264 core 157 r2945 72db437
Encoding settings : cabac=1 / ref=5 / deblock=1:-3:-3 / analyse=0x3:0x113 / me=umh / subme=8 / psy=1 / psy_rd=1.00:0.00 / mixed_ref=1 / me_range=16 / chroma_me=1 / trellis=1 / 8x8dct=1 / cqm=0 / deadzone=21,11 / fast_pskip=1 / chroma_qp_offset=-2 / threads=24 / lookahead_threads=4 / sliced_threads=0 / nr=0 / decimate=1 / interlaced=0 / bluray_compat=0 / constrained_intra=0 / bframes=3 / b_pyramid=2 / b_adapt=1 / b_bias=0 / direct=3 / weightb=1 / open_gop=0 / weightp=2 / keyint=250 / keyint_min=23 / scenecut=40 / intra_refresh=0 / rc_lookahead=50 / rc=2pass / mbtree=1 / bitrate=9423 / ratetol=1.0 / qcomp=0.60 / qpmin=0 / qpmax=69 / qpstep=4 / cplxblur=20.0 / qblur=0.5 / ip_ratio=1.40 / aq=1:1.00
Default : Yes
Forced : No
Audio #1
ID : 2
Format : AC-3
Format/Info : Audio Coding 3
Commercial name : Dolby Digital
Codec ID : A_AC3
Duration : 1 h 44 min
Bit rate mode : Constant
Bit rate : 384 kb/s
Channel(s) : 6 channels
Channel layout : L R C LFE Ls Rs
Sampling rate : 48.0 kHz
Frame rate : 31.250 FPS (1536 SPF)
Bit depth : 16 bits
Compression mode : Lossy
Stream size : 286 MiB (3%)
Title : Дублированный (iTunes)
Language : Russian
Service kind : Complete Main
Default : Yes
Forced : No
Audio #2
ID : 3
Format : AC-3
Format/Info : Audio Coding 3
Commercial name : Dolby Digital
Codec ID : A_AC3
Duration : 1 h 44 min
Bit rate mode : Constant
Bit rate : 192 kb/s
Channel(s) : 2 channels
Channel layout : L R
Sampling rate : 48.0 kHz
Frame rate : 31.250 FPS (1536 SPF)
Bit depth : 16 bits
Compression mode : Lossy
Stream size : 143 MiB (2%)
Title : Профессиональный многоголосый (HDrezka Studio)
Language : Russian
Service kind : Complete Main
Default : No
Forced : No
Audio #3
ID : 4
Format : DTS
Format/Info : Digital Theater Systems
Codec ID : A_DTS
Duration : 1 h 44 min
Bit rate mode : Constant
Bit rate : 1 509 kb/s
Channel(s) : 6 channels
Channel layout : C L R Ls Rs LFE
Sampling rate : 48.0 kHz
Frame rate : 93.750 FPS (512 SPF)
Bit depth : 24 bits
Compression mode : Lossy
Stream size : 1.10 GiB (13%)
Language : English
Default : No
Forced : No
Text #1
ID : 5
Format : UTF-8
Codec ID : S_TEXT/UTF8
Codec ID/Info : UTF-8 Plain Text
Duration : 1 h 36 min
Bit rate : 82 b/s
Count of elements : 1731
Stream size : 57.9 KiB (0%)
Title : Full
Language : English
Default : Yes
Forced : No
Text #2
ID : 6
Format : UTF-8
Codec ID : S_TEXT/UTF8
Codec ID/Info : UTF-8 Plain Text
Duration : 1 h 43 min
Bit rate : 86 b/s
Count of elements : 2035
Stream size : 65.6 KiB (0%)
Title : SDH
Language : English
Default : No
Forced : No
Menu
00:00:00.000 : :绗?01 绔?
00:07:09.721 : :绗?02 绔?
00:13:40.403 : :绗?03 绔?
00:17:51.529 : :绗?04 绔?
00:22:17.378 : :绗?05 绔?
00:27:38.615 : :绗?06 绔?
00:33:52.197 : :绗?07 绔?
00:38:46.074 : :绗?08 绔?
00:45:02.325 : :绗?09 绔?
00:49:28.549 : :绗?10 绔?
00:55:15.229 : :绗?11 绔?
00:59:48.919 : :绗?12 绔?
01:04:46.299 : :绗?13 绔?
01:10:35.064 : :绗?14 绔?
01:15:03.874 : :绗?15 绔?
01:20:56.894 : :绗?16 绔?
01:25:36.923 : :绗?17 绔?
01:29:41.459 : :绗?18 绔?
01:33:19.427 : :绗?19 绔?
01:37:56.704 : :绗?20 绔?-
-

Скриншоты

--
-
[free-tor.info].t20209.torrent 
Торрент: Зарегистрирован [ 2019-03-23 15:25 ] · 01991CD38F95702A5BFB89189129D0499ED21299

Скачать .torrent

Скачать .torrent

22 KB

Статус: проверено
.torrent скачан: 17 раз
Размер: 8,36 GB
Правила
Volodymyr(23-Мар-19)
Похожие темы

[Профиль] [ЛС]
Показать сообщения:    
Ответить на тему

Текущее время: 16-Июл 04:10

Часовой пояс: UTC + 4



Вы не можете начинать темы
Вы не можете отвечать на сообщения
Вы не можете редактировать свои сообщения
Вы не можете удалять свои сообщения
Вы не можете голосовать в опросах
Вы не можете прикреплять файлы к сообщениям
Вы можете скачивать файлы
Анализ веб сайтов Яндекс.Метрика