По половому признаку / On the Basis of Sex (Мими Ледер) [2018, драма, биография, WEB-DL 1080p от селезень | iTunes]

Ответить на тему
Статистика раздачи [Обновить пиров]
Размер:  4,52 GB   |    Зарегистрирован:  3 месяца 22 дня   |    .torrent скачан:  6 раз
Сидов:  342  [  0 KB/s  ]   Личеров:  13  [  0 KB/s  ]   Подробная статистика пиров
 
   
 
 
Автор Сообщение

Skorp10n ®

Оффлайн

 Активный раздающий 1 Активный раздающий 2
 Активный релизер 1000 Активный релизер 1500 Активный релизер 2000 Активный релизер 250 Активный релизер 3000 Активный релизер 500 Активный релизер 5000 Активный релизер Фильмов (1000) Активный релизер Фильмов (300) Активный релизер Фильмов (600) Активный Форумчанин 1 Активный Форумчанин 2 Активный Форумчанин 3 Активный Форумчанин 4 Друг трекера Карма 1000 Карма 1500 Карма 3000 Карма 500 Меценат Ни дня без новостей Орденосец 1 степени Орденосец 2 степени Орденосец 3 степени Почетный орденосец Почетный репортер С Новым 2016 Годом! С Новым 2017 Годом! С Новым 2018 Годом! С Новым 2019 Годом! Супер Мега Контер Квейк ТОП-10

Пол: Мужской

Стаж: 3 года 11 месяцев

Наличие запрета:

Сообщений: 10847

Откуда: Free-Tor.com

Отдача: не определено

Загрузка: не определено

Нажми

Создавать темы 24-Мар-2019 11:26

[Цитировать]

Информация о фильме- Название: По половому признаку
Оригинальное название: On the Basis of Sex
Год выхода: 2018
Жанр: Драма, биография
Режиссер: Мими Ледер
В ролях: Фелисити Джонс, Арми Хаммер, Джастин Теру, Сэм Уотерстон, Кэти Бэйтс, Кэйли Спэни, Джек Рейнор, Стивен Рут, Крис Малки, Гари Вернтц- -О фильме: Фильм рассказывает о молодом адвокате Рут Бадер Гинзбург и её борьбе за равные права мужчин и женщин. Героиня преодолевает все трудности на пути, чтобы стать верховным судьёй США.-Страна: США
Студия: Amblin Partners, Participant Media, Robert Cort Productions
Продолжительность: 01:55:01
Перевод: Дублированный | iTunes-Качество: WEB-DL 1080p
Видео: MPEG-4 AVC, 1920x1080, 5234 Kbit/s, 23.976 fps
Звук:
Аудио: 48 kHz, AC3, 5.1, 384 Kbps | iTunes | RUS | -

Скриншоты

--
-

MI

-General
Unique ID : 214308564345538516849034519947830575951 (0xA13A54010F4E7F33A546F54E8B3F434F)
Complete name : D:Video111On.The.Basis.Of.Sex.2018.WEB-DL.1080p.seleZen.mkv
Format : Matroska
Format version : Version 4
File size : 4.52 GiB
Duration : 1 h 55 min
Overall bit rate : 5 620 kb/s
Movie name : On The Basis Of Sex 2018 from селезень
Encoded date : UTC 2019-03-23 13:11:13
Writing application : mkvmerge v32.0.0 ('Astral Progressions') 64-bit
Writing library : libebml v1.3.7 + libmatroska v1.5.0
Video
ID : 1
Format : AVC
Format/Info : Advanced Video Codec
Format profile : [email protected]
Format settings : CABAC / 4 Ref Frames
Format settings, CABAC : Yes
Format settings, ReFrames : 4 frames
Codec ID : V_MPEG4/ISO/AVC
Duration : 1 h 55 min
Bit rate : 5 234 kb/s
Width : 1 920 pixels
Height : 1 080 pixels
Display aspect ratio : 16:9
Frame rate mode : Constant
Frame rate : 25.000 FPS
Color space : YUV
Chroma subsampling : 4:2:0
Bit depth : 8 bits
Scan type : Progressive
Bits/(Pixel*Frame) : 0.101
Stream size : 4.21 GiB (93%)
Language : English
Default : Yes
Forced : No
Color range : Limited
Color primaries : BT.709
Transfer characteristics : BT.709
Matrix coefficients : BT.709
Audio
ID : 2
Format : AC-3
Format/Info : Audio Coding 3
Commercial name : Dolby Digital
Codec ID : A_AC3
Duration : 1 h 55 min
Bit rate mode : Constant
Bit rate : 384 kb/s
Channel(s) : 6 channels
Channel layout : L R C LFE Ls Rs
Sampling rate : 48.0 kHz
Frame rate : 31.250 FPS (1536 SPF)
Bit depth : 16 bits
Compression mode : Lossy
Stream size : 316 MiB (7%)
Title : iTunes
Language : Russian
Service kind : Complete Main
Default : Yes
Forced : Yes
Menu
00:00:00.000 : en:Chapter 1
00:09:27.080 : en:Chapter 2
00:15:30.720 : en:Chapter 3
00:21:55.000 : en:Chapter 4
00:30:20.079 : en:Chapter 5
00:36:04.758 : en:Chapter 6
00:40:43.998 : en:Chapter 7
00:45:16.758 : en:Chapter 8
00:54:16.718 : en:Chapter 9
00:58:43.877 : en:Chapter 10
01:05:47.397 : en:Chapter 11
01:11:30.196 : en:Chapter 12
01:18:03.036 : en:Chapter 13
01:22:32.836 : en:Chapter 14
01:28:02.035 : en:Chapter 15
01:36:50.995 : en:Chapter 16
01:46:21.435 : en:Chapter 17-
-Релиз от: -
[free-tor.info].t20220.torrent 
Торрент: Зарегистрирован [ 2019-03-24 11:26 ] · D34AE5A432EEC4B853E1AB150C6E30F813CF13E8

Скачать .torrent

Скачать .torrent

91 KB

Статус: проверено
.torrent скачан: 6 раз
Размер: 4,52 GB
Правила
Похожие темы

[Профиль] [ЛС]
Показать сообщения:    
Ответить на тему

Текущее время: 16-Июл 03:55

Часовой пояс: UTC + 4



Вы не можете начинать темы
Вы не можете отвечать на сообщения
Вы не можете редактировать свои сообщения
Вы не можете удалять свои сообщения
Вы не можете голосовать в опросах
Вы не можете прикреплять файлы к сообщениям
Вы можете скачивать файлы
Анализ веб сайтов Яндекс.Метрика