Бамблби / Bumblebee (Трэвис Найт) [2018, фантастика, боевик, приключения, UHD BDRemux 2160p от ExKinoRay | 4K | HDR | Dolby Vision | Лицензия]

Ответить на тему
Статистика раздачи [Обновить пиров]
Размер:  44,38 GB   |    Зарегистрирован:  3 месяца 1 день   |    .torrent скачан:  13 раз
Сидов:  141  [  0 KB/s  ]   Личеров:  33  [  0 KB/s  ]   Подробная статистика пиров
 
   
 
 
Автор Сообщение

Skorp10n ®

Оффлайн

 Активный раздающий 1 Активный раздающий 2
 Активный релизер 1000 Активный релизер 1500 Активный релизер 2000 Активный релизер 250 Активный релизер 3000 Активный релизер 500 Активный релизер 5000 Активный релизер Фильмов (1000) Активный релизер Фильмов (300) Активный релизер Фильмов (600) Активный Форумчанин 1 Активный Форумчанин 2 Активный Форумчанин 3 Активный Форумчанин 4 Друг трекера Карма 1000 Карма 1500 Карма 3000 Карма 500 Меценат Ни дня без новостей Орденосец 1 степени Орденосец 2 степени Орденосец 3 степени Почетный орденосец Почетный репортер С Новым 2016 Годом! С Новым 2017 Годом! С Новым 2018 Годом! С Новым 2019 Годом! Супер Мега Контер Квейк ТОП-10

Пол: Мужской

Стаж: 3 года 10 месяцев

Наличие запрета:

Сообщений: 10768

Откуда: Free-Tor.com

Отдача: не определено

Загрузка: не определено

Нажми

Создавать темы 24-Мар-2019 11:45

[Цитировать]

Бамблби
Bumblebee
«У каждого приключения есть начало»-
- Название: Бамблби
Оригинальное название: Bumblebee
Год выпуска: 2018
Жанр: Фантастика, боевик, приключения
Выпущено: США, Hasbro Inc., Paramount Pictures
Режиссер: Трэвис Найт
В ролях: Дилан О`Брайэн, Хейли Стайнфелд, Джастин Теру, Джон Сина, Анджела Бассетт, Памела Адлон, Мегин Прайс, Грей ДеЛайл, Питер Каллен, Кеннет Чои
Продолжительность: 01:53:52
Перевод: Дублированный | Лицензия-Описание:-1987 год. Скрываясь от преследования, Бамблби находит убежище на автомобильной свалке в калифорнийском городке, где живет Чарли. Девушке скоро исполнится 18, она стремится найти свое место в жизни. И именно она наталкивается на покореженного и сломленного Бамблби. Приведя его в чувство, Чарли моментально осознает: на ее пути оказался не простой желтый Фольксваген Жук…- -Файл-Контейнер: MP4
Качество: Blu-Ray Remux (2160p)
Видео: HEVC HDR, 49563 Kбит/с, 3840x2160-Audio: Russian / Dolby Digital Audio / 5.1 / 48 kHz / 640 kbps / DN -26dB-Субтитры: Русские (форс.)-Релиз от: Автор релиза: Ivantsov-

Скриншоты:

--
-

MI:

-Общее
Полное имя : Bumblebee.2018.UHD.BDRemux.2160p.DV.IVA.RUS.ExKinoRay.mp4
Формат : MPEG-4
Профиль формата : Base Media / Version 2
Идентификатор кодека : mp42 (mp42/iso6/isom/msdh/dby1)
Размер файла : 44,4 Гбайт
Продолжительность : 1 ч. 53 м.
Общий поток : 55,8 Мбит/сек
Дата кодирования : UTC 2019-03-23 14:26:11
Дата пометки : UTC 2019-03-23 14:26:11
Видео #1
Идентификатор : 1
Формат : HEVC
Формат/Информация : High Efficiency Video Coding
Коммерческое название : HDR10
Профиль формата : Main [email protected]@High
Идентификатор кодека : hev1
Идентификатор кодека/Информация : High Efficiency Video Coding
Продолжительность : 1 ч. 53 м.
Битрейт : 49,6 Мбит/сек
Ширина : 3840 пикселей
Высота : 2160 пикселей
Соотношение сторон : 16:9
Режим частоты кадров : Постоянный
Частота кадров : 23,976 (24000/1001) кадра/сек
Цветовое пространство : YUV
Субдискретизация насыщенности : 4:2:0 (Type 2)
Битовая глубина : 10 бит
Бит/(Пиксели*Кадры) : 0.249
Размер потока : 39,4 Гбайт (89%)
Default : Нет
Дата кодирования : UTC 2019-03-23 14:26:11
Дата пометки : UTC 2019-03-23 14:26:11
Цветовой диапазон : Limited
Основные цвета : BT.2020
Характеристики трансфера : PQ
Коэффициенты матрицы : BT.2020 non-constant
MasteringDisplay_ColorPrimaries : Display P3
MasteringDisplay_Luminance : min: 0.0001 cd/m2, max: 1000 cd/m2
Codec configuration box : hvcC
Видео #2
Идентификатор : 2
Формат : HEVC
Формат/Информация : High Efficiency Video Coding
Коммерческое название : HDR10
Профиль формата : Main [email protected]@High
Dolby Vision : 1.0, dvhe.07.06, EL+RPU
Идентификатор кодека : dvhe
Идентификатор кодека/Информация : High Efficiency Video Coding with Dolby Vision
Продолжительность : 1 ч. 53 м.
Битрейт : 5578 Кбит/сек
Ширина : 1920 пикселей
Высота : 1080 пикселей
Соотношение сторон : 16:9
Режим частоты кадров : Постоянный
Частота кадров : 23,976 (24000/1001) кадра/сек
Цветовое пространство : YUV
Субдискретизация насыщенности : 4:2:0 (Type 2)
Битовая глубина : 10 бит
Бит/(Пиксели*Кадры) : 0.112
Размер потока : 4,44 Гбайт (10%)
Default : Нет
Дата кодирования : UTC 2019-03-23 14:26:11
Дата пометки : UTC 2019-03-23 14:26:11
Цветовой диапазон : Limited
Основные цвета : BT.2020
Характеристики трансфера : PQ
Коэффициенты матрицы : BT.2020 non-constant
MasteringDisplay_ColorPrimaries : Display P3
MasteringDisplay_Luminance : min: 0.0001 cd/m2, max: 1000 cd/m2
Codec configuration box : hvcC+dvcC
Аудио
Идентификатор : 3
Формат : AC-3
Формат/Информация : Audio Coding 3
Коммерческое название : Dolby Digital
Идентификатор кодека : ac-3
Продолжительность : 1 ч. 53 м.
Вид битрейта : Постоянный
Битрейт : 640 Кбит/сек
Каналы : 6 каналов
Channel layout : L R C LFE Ls Rs
Частота : 48,0 КГц
Частота кадров : 31,250 кадров/сек (1536 SPF)
Битовая глубина : 16 бит
Метод сжатия : С потерями
Размер потока : 521 Мбайт (1%)
Язык : Russian
ServiceKind : Complete Main
Default : Нет
Дата кодирования : UTC 2019-03-23 14:26:11
Дата пометки : UTC 2019-03-23 14:26:11-
-
[free-tor.info].t20225.torrent 
Торрент: Зарегистрирован [ 2019-03-24 11:45 ] · D9D0E983E90E5389B141C3145A3A287A8AE31D10

Скачать .torrent

Скачать .torrent

58 KB

Статус: проверено
.torrent скачан: 13 раз
Размер: 44,38 GB
Правила
Похожие темы

[Профиль] [ЛС]
Показать сообщения:    
Ответить на тему

Текущее время: 25-Июн 12:44

Часовой пояс: UTC + 4



Вы не можете начинать темы
Вы не можете отвечать на сообщения
Вы не можете редактировать свои сообщения
Вы не можете удалять свои сообщения
Вы не можете голосовать в опросах
Вы не можете прикреплять файлы к сообщениям
Вы можете скачивать файлы
Анализ веб сайтов Яндекс.Метрика