Айка (Сергей Дворцевой) [2018, драма, WEB-DL 1080p | iTunes]

Ответить на тему
Статистика раздачи [Обновить пиров]
Размер:  4,47 GB   |    Зарегистрирован:  2 месяца 23 дня   |    .torrent скачан:  19 раз
Сидов:  382  [  0 KB/s  ]   Личеров:  21  [  0 KB/s  ]   Подробная статистика пиров
 
   
 
 
Автор Сообщение

Skorp10n ®

Оффлайн

 Активный раздающий 1 Активный раздающий 2
 Активный релизер 1000 Активный релизер 1500 Активный релизер 2000 Активный релизер 250 Активный релизер 3000 Активный релизер 500 Активный релизер 5000 Активный релизер Фильмов (1000) Активный релизер Фильмов (300) Активный релизер Фильмов (600) Активный Форумчанин 1 Активный Форумчанин 2 Активный Форумчанин 3 Активный Форумчанин 4 Друг трекера Карма 1000 Карма 1500 Карма 3000 Карма 500 Меценат Ни дня без новостей Орденосец 1 степени Орденосец 2 степени Орденосец 3 степени Почетный орденосец Почетный репортер С Новым 2016 Годом! С Новым 2017 Годом! С Новым 2018 Годом! С Новым 2019 Годом! Супер Мега Контер Квейк ТОП-10

Пол: Мужской

Стаж: 3 года 10 месяцев

Наличие запрета:

Сообщений: 10760

Откуда: Free-Tor.com

Отдача: не определено

Загрузка: не определено

Нажми

Создавать темы 24-Мар-2019 12:33

[Цитировать]

Информация о фильме- Название: Айка
Год выпуска: 2018
Жанр: Драма
Режиссер: Сергей Дворцевой
В ролях: Самал Еслямова, Джипаргуль Абдилова, Давид Алавердян, Нуржамал Мамадалиева, Нуржан Кунназарова, Сергей Мазур, Азамат Сатимбаев, Асхат Кучинчереков, Лариса Фирсова, Полина Северная-Описание: Молодая девушка, приехавшая в холодную Москву на заработки, вынуждена оставить своего новорожденного ребенка в роддоме. Однако вскоре ей предстоит понять, способна ли она смириться с разлукой.--Страна: Россия, Германия, Польша, Китай, Казахстан
Студии: ARTE LLC, Eurasia Film Production, Eurimages
Продолжительность: 01:53:36
Язык: Русский-Файл-Качество: WEB-DL 1080p
Контейнер: MKV
Видео: MPEG-4 AVC, 1920x1080, 24.000 fps, 5135 Kbps
Аудио: Русский: AC3, 16 bits, 48 KHz, 5.1 ch, 384 Kbps | iTunes
Субтитры: Нет-Релиз от: george$t-

MediaInfo

-General
Unique ID : 173818809553634364144810890163722656235 (0x82C448F72EC5550E976A7BCF964C19EB)
Complete name : Айка.2018.mkv
Format : Matroska
Format version : Version 2
File size : 4.47 GiB
Duration : 1 h 53 min
Overall bit rate : 5 631 kb/s
Encoded date : UTC 2019-03-22 13:16:04
Writing application : mkvmerge v7.8.0 ('River Man') 32bit built on Mar 27 2015 16:18:02
Writing library : libebml v1.3.1 + libmatroska v1.4.2
Video
ID : 1
Format : AVC
Format/Info : Advanced Video Codec
Format profile : [email protected]
Format settings : CABAC / 4 Ref Frames
Format settings, CABAC : Yes
Format settings, ReFrames : 4 frames
Codec ID : V_MPEG4/ISO/AVC
Duration : 1 h 53 min
Bit rate : 5 135 kb/s
Width : 1 920 pixels
Height : 1 080 pixels
Display aspect ratio : 16:9
Frame rate mode : Constant
Frame rate : 24.000 FPS
Color space : YUV
Chroma subsampling : 4:2:0
Bit depth : 8 bits
Scan type : Progressive
Bits/(Pixel*Frame) : 0.103
Stream size : 4.07 GiB (91%)
Title : Айка.2018
Language : Russian
Default : Yes
Forced : No
Color range : Limited
Color primaries : BT.709
Transfer characteristics : BT.709
Matrix coefficients : BT.709
Audio
ID : 2
Format : AC-3
Format/Info : Audio Coding 3
Codec ID : A_AC3
Duration : 1 h 53 min
Bit rate mode : Constant
Bit rate : 384 kb/s
Channel(s) : 6 channels
Channel positions : Front: L C R, Side: L R, LFE
Sampling rate : 48.0 kHz
Frame rate : 31.250 FPS (1536 SPF)
Bit depth : 16 bits
Compression mode : Lossy
Stream size : 312 MiB (7%)
Title : AC-3; 16 bits 48 Khz; 5.1ch 384 Kbps; CBR | (iTunes)
Language : Russian
Service kind : Complete Main
Default : Yes
Forced : No-
-

Скриншоты

--
-
[free-tor.info].t20235.torrent 
Торрент: Зарегистрирован [ 2019-03-24 12:33 ] · 614FA371D1F2AC9C46B0C3E108F84A9C6EC6C1E4

Скачать .torrent

Скачать .torrent

23 KB

Статус: проверено
.torrent скачан: 19 раз
Размер: 4,47 GB
Правила
Похожие темы

[Профиль] [ЛС]
Показать сообщения:    
Ответить на тему

Текущее время: 16-Июн 12:36

Часовой пояс: UTC + 4



Вы не можете начинать темы
Вы не можете отвечать на сообщения
Вы не можете редактировать свои сообщения
Вы не можете удалять свои сообщения
Вы не можете голосовать в опросах
Вы не можете прикреплять файлы к сообщениям
Вы можете скачивать файлы
Анализ веб сайтов Яндекс.Метрика