Борджиа / The Borgias (Нил Джордан, Джон Мэйбери, Джереми Подесва, Саймон Селлан, Джон Эмиел, Дэвид Лиленд, Кари Скогланд) [S01-03] [2011-2013, HDRip от Generalfilm | КПК | LostFilm]

Ответить на тему
Статистика раздачи [Обновить пиров]
Размер:  6,54 GB   |    Зарегистрирован:  2 месяца 30 дней   |    .torrent скачан:  6 раз
Сидов:  33  [  0 KB/s  ]   Личеров:  10  [  0 KB/s  ]   Подробная статистика пиров
 
   
 
 
Автор Сообщение

Skorp10n ®

Оффлайн

 Активный раздающий 1 Активный раздающий 2
 Активный релизер 1000 Активный релизер 1500 Активный релизер 2000 Активный релизер 250 Активный релизер 3000 Активный релизер 500 Активный релизер 5000 Активный релизер Фильмов (1000) Активный релизер Фильмов (300) Активный релизер Фильмов (600) Активный Форумчанин 1 Активный Форумчанин 2 Активный Форумчанин 3 Активный Форумчанин 4 Друг трекера Карма 1000 Карма 1500 Карма 3000 Карма 500 Меценат Ни дня без новостей Орденосец 1 степени Орденосец 2 степени Орденосец 3 степени Почетный орденосец Почетный репортер С Новым 2016 Годом! С Новым 2017 Годом! С Новым 2018 Годом! С Новым 2019 Годом! Супер Мега Контер Квейк ТОП-10

Пол: Мужской

Стаж: 3 года 10 месяцев

Наличие запрета:

Сообщений: 10768

Откуда: Free-Tor.com

Отдача: не определено

Загрузка: не определено

Нажми

Создавать темы 25-Мар-2019 13:41

[Цитировать]

Информация о фильме- Оригинальное название: The Borgias
Год выпуска: 2011
Выпущено: Канада, Венгрия, Take 5 Productions, Mid Atlantic Films, Octagon Film
Режиссер: Нил Джордан, Джон Мэйбери, Джереми Подесва, Саймон Селлан, Джон Эмиел, Дэвид Лиленд, Кари Скогланд
В ролях: Джереми Айронс, Франсуа Арно, Холлидей Грейнджер, Питер Салливан, Шон Харрис, Джоанн Уолли, Лотте Вербеек, Колм Фиор, Вернон Добчефф, Дэвид Оукс, Боско Хоган, Джина МакКи, Дэвид Алпей, Джулиан Блич, Себастьян Де Соуза, Туре Линдхардт, Стивен Беркофф, Люк Паскуалино, Саймон МакБерни, Мики Самнер, Мелиа Крейлинг, Дерек Джекоби, Эммануэль Шрики-О фильме:-В конце XV века в руках Папы Римского сосредоточилась неограниченная власть: он мог короновать и свергать королей, изменять судьбу империй. Некогда доброе имя церкви стало теперь ассоциироваться только с коррупцией и безнравственностью. В 1492 году, после смерти папы Иннокентия VIII, престол Святого Петра занял Александр VI (в миру Родриго Борджиа), который вписал в историю имя клана Борджиа отнюдь не благими деяниями- -Страна: Take 5 Productions, Mid Atlantic Films, Octagon Film
Студия: Канада, Венгрия
Продолжительность: 29 x ~ 00:51:00
Перевод: Профессиональный (многоголосый, закадровый) [LostFilm]-Файл-Формат: MP4
Качество: HDRip | КПК
Видео: MPEG-4 AVC (x264), 640x360, ~500 kbps, 23.976 fps
Аудио: AAC LC, 48.0 KHz, 2 ch, 128 Kbps
Субтитры: Нет-Семпл-

Скриншоты

--
-

MI

-Complete name : F:КИНОBorgia.AVC.KPK.GFBorgia.S01.2011.AVC.HDRip.KPK.LF.GFBorgia.s01e02.2011.AVC.HDRip.KPK.LF.GF.mp4
Format : MPEG-4
Codec ID : M4V (isom/iso2/avc1)
File size : 227 MiB
Duration : 50 min 8 s
Overall bit rate mode : Variable
Overall bit rate : 633 kb/s
Writing application : Lavf53.19.0
Video
ID : 1
Format : AVC
Format/Info : Advanced Video Codec
Format profile : [email protected]
Format settings, CABAC : Yes
Format settings, RefFrames : 8 frames
Codec ID : avc1
Codec ID/Info : Advanced Video Coding
Duration : 50 min 7 s
Bit rate : 500 kb/s
Width : 640 pixels
Height : 360 pixels
Display aspect ratio : 16:9
Frame rate mode : Constant
Frame rate : 23.976 (24000/1001) FPS
Color space : YUV
Chroma subsampling : 4:2:0
Bit depth : 8 bits
Scan type : Progressive
Bits/(Pixel*Frame) : 0.091
Stream size : 179 MiB (79%)
Writing library : x264 core 148 r2638 7599210
Encoding settings : cabac=1 / ref=8 / deblock=1:-2:-2 / analyse=0x3:0x133 / me=umh / subme=10 / psy=1 / psy_rd=1.00:0.00 / mixed_ref=1 / me_range=24 / chroma_me=1 / trellis=2 / 8x8dct=1 / cqm=0 / deadzone=21,11 / fast_pskip=1 / chroma_qp_offset=-2 / threads=6 / lookahead_threads=1 / sliced_threads=0 / nr=0 / decimate=0 / interlaced=0 / bluray_compat=0 / constrained_intra=0 / bframes=8 / b_pyramid=2 / b_adapt=2 / b_bias=0 / direct=3 / weightb=1 / open_gop=0 / weightp=2 / keyint=240 / keyint_min=121 / scenecut=40 / intra_refresh=0 / rc_lookahead=40 / rc=2pass / mbtree=1 / bitrate=500 / ratetol=1.0 / qcomp=0.60 / qpmin=0 / qpmax=69 / qpstep=4 / cplxblur=20.0 / qblur=0.5 / ip_ratio=1.40 / aq=1:1.00
Menus : 3
Audio
ID : 2
Format : AAC
Format/Info : Advanced Audio Codec
Format profile : LC
Codec ID : 40
Duration : 50 min 8 s
Bit rate mode : Variable
Bit rate : 128 kb/s
Channel(s) : 2 channels
Channel positions : Front: L R
Sampling rate : 48.0 kHz
Frame rate : 46.875 FPS (1024 SPF)
Compression mode : Lossy
Stream size : 45.9 MiB (20%)
Default : Yes
Alternate group : 1
Menus : 3-
-Релиз от: -
[free-tor.info].t20243.torrent 
Торрент: Зарегистрирован [ 2019-03-25 13:41 ] · 2781FA39EFA4A86F785233BC7FFDD578A578BDB9

Скачать .torrent

Скачать .torrent

20 KB

Статус: проверено
.torrent скачан: 6 раз
Размер: 6,54 GB
Правила

[Профиль] [ЛС]
Показать сообщения:    
Ответить на тему

Текущее время: 25-Июн 11:52

Часовой пояс: UTC + 4



Вы не можете начинать темы
Вы не можете отвечать на сообщения
Вы не можете редактировать свои сообщения
Вы не можете удалять свои сообщения
Вы не можете голосовать в опросах
Вы не можете прикреплять файлы к сообщениям
Вы можете скачивать файлы
Анализ веб сайтов Яндекс.Метрика