Святая Агата / St. Agatha (Даррен Линн Боусман) [2018, ужасы, BDRemux 1080i от селезень | iTunes]

Ответить на тему
Статистика раздачи [Обновить пиров]
Размер:  14,38 GB   |    Зарегистрирован:  2 месяца 30 дней   |    .torrent скачан:  10 раз
Сидов:  22  [  0 KB/s  ]   Личеров:  2  [  0 KB/s  ]   Подробная статистика пиров
 
   
 
 
Автор Сообщение

Skorp10n ®

Оффлайн

 Активный раздающий 1 Активный раздающий 2
 Активный релизер 1000 Активный релизер 1500 Активный релизер 2000 Активный релизер 250 Активный релизер 3000 Активный релизер 500 Активный релизер 5000 Активный релизер Фильмов (1000) Активный релизер Фильмов (300) Активный релизер Фильмов (600) Активный Форумчанин 1 Активный Форумчанин 2 Активный Форумчанин 3 Активный Форумчанин 4 Друг трекера Карма 1000 Карма 1500 Карма 3000 Карма 500 Меценат Ни дня без новостей Орденосец 1 степени Орденосец 2 степени Орденосец 3 степени Почетный орденосец Почетный репортер С Новым 2016 Годом! С Новым 2017 Годом! С Новым 2018 Годом! С Новым 2019 Годом! Супер Мега Контер Квейк ТОП-10

Пол: Мужской

Стаж: 3 года 10 месяцев

Наличие запрета:

Сообщений: 10768

Откуда: Free-Tor.com

Отдача: не определено

Загрузка: не определено

Нажми

Создавать темы 25-Мар-2019 13:43

[Цитировать]

Информация о фильме- Название: Святая Агата
Оригинальное название: St. Agatha
Год выхода: 2018
Жанр: Ужасы
Режиссер: Даррен Линн Боусман
В ролях: Сабрина Керн, Кэролин Хеннеси, Кортни Хэлверсон, Сет Майклс, Трин Миллер, Линдсэй Сейм, Шоун Флетчер, Джэйсон Уорнер Смит, Максимус Мёрра, Марша Фи Бергер- -О фильме: 50-е годы ХХ века, маленький городок штата Джорджия. Молодая авантюристка Мэри исколесила всю Америку, занимаясь мошенничеством. Когда девушка понимает, что беременна, она решает временно укрыться в женском монастыре. Героиня не подозревает, что монастырь хранит ужасные темные тайны, и никто еще не смог покинуть его стены, чтобы о них рассказать. Спустя какое-то время необъяснимая тревога, поселившаяся в ее сердце, начинает приобретать видимые формы, и становится ясно, что монахини совсем не те, за кого себя выдают.-Страна: США
Студия: Dragon Blood Holdings, St. Agatha, The Outside Writers
Продолжительность: 01:43:07
Перевод: Дублированный | iTunes-Качество: BDRemux 1080i
Видео: MPEG-4 AVC, 1920x1080, 18 Mbit/s, 25 fps
Звук:
Аудио #01: 48 kHz, AC3, 5.1, 384 Kbps | iTunes | RUS |
Аудио #02: 48 kHz, DTS-HD MA, 5.1, 2334 Kbps | Оригинал | ENG |
Субтитры: Французские-

Скриншоты

--
-

MI

-General
Unique ID : 293315305784719372084142219509188749039 (0xDCAA791A2F26CAC13DE78B0039A366EF)
Complete name : D:Video111St.Agatha.2018.BDREMUX.1080i.seleZen.mkv
Format : Matroska
Format version : Version 4
File size : 14.4 GiB
Duration : 1 h 39 min
Overall bit rate mode : Variable
Overall bit rate : 20.7 Mb/s
Movie name : St.Agatha 2018 from селезень
Encoded date : UTC 2019-03-24 18:51:54
Writing application : mkvmerge v32.0.0 ('Astral Progressions') 64-bit
Writing library : libebml v1.3.7 + libmatroska v1.5.0
Video
ID : 1
Format : AVC
Format/Info : Advanced Video Codec
Format profile : [email protected]
Format settings : CABAC / 4 Ref Frames
Format settings, CABAC : Yes
Format settings, ReFrames : 4 frames
Format settings, GOP : M=3, N=18
Codec ID : V_MPEG4/ISO/AVC
Duration : 1 h 39 min
Bit rate mode : Variable
Bit rate : 18.0 Mb/s
Maximum bit rate : 23.0 Mb/s
Width : 1 920 pixels
Height : 1 080 pixels
Display aspect ratio : 16:9
Frame rate mode : Constant
Frame rate : 25.000 FPS
Standard : PAL
Color space : YUV
Chroma subsampling : 4:2:0
Bit depth : 8 bits
Scan type : MBAFF
Scan type, store method : Interleaved fields
Scan order : Top Field First
Bits/(Pixel*Frame) : 0.347
Stream size : 12.5 GiB (87%)
Language : English
Default : Yes
Forced : No
Color range : Limited
Color primaries : BT.709
Transfer characteristics : BT.709
Matrix coefficients : BT.709
Audio #1
ID : 2
Format : AC-3
Format/Info : Audio Coding 3
Commercial name : Dolby Digital
Codec ID : A_AC3
Duration : 1 h 39 min
Bit rate mode : Constant
Bit rate : 384 kb/s
Channel(s) : 6 channels
Channel layout : L R C LFE Ls Rs
Sampling rate : 48.0 kHz
Frame rate : 31.250 FPS (1536 SPF)
Bit depth : 16 bits
Compression mode : Lossy
Stream size : 273 MiB (2%)
Title : iTunes
Language : Russian
Service kind : Complete Main
Default : Yes
Forced : Yes
Audio #2
ID : 3
Format : DTS XLL
Format/Info : Digital Theater Systems
Commercial name : DTS-HD Master Audio
Codec ID : A_DTS
Duration : 1 h 39 min
Bit rate mode : Variable
Bit rate : 2 334 kb/s
Channel(s) : 6 channels
Channel layout : C L R Ls Rs LFE
Sampling rate : 48.0 kHz
Frame rate : 93.750 FPS (512 SPF)
Bit depth : 16 bits
Compression mode : Lossless
Stream size : 1.62 GiB (11%)
Title : Original
Language : English
Default : No
Forced : No
Text
ID : 4
Format : UTF-8
Codec ID : S_TEXT/UTF8
Codec ID/Info : UTF-8 Plain Text
Duration : 1 h 33 min
Bit rate : 44 b/s
Count of elements : 1048
Stream size : 30.7 KiB (0%)
Language : French
Default : No
Forced : No
Menu
00:00:00.000 : ru:Глава 01
00:09:34.320 : ru:Глава 02
00:17:56.240 : ru:Глава 03
00:23:53.640 : ru:Глава 04
00:35:51.280 : ru:Глава 05
00:39:35.480 : ru:Глава 06
00:47:17.440 : ru:Глава 07
00:55:06.600 : ru:Глава 08
01:04:19.000 : ru:Глава 09
01:12:05.760 : ru:Глава 10
01:19:07.760 : ru:Глава 11
01:27:49.040 : ru:Глава 12
01:38:55.600 : ru:Глава 13-
-Релиз от: -
[free-tor.info].t20244.torrent 
Торрент: Зарегистрирован [ 2019-03-25 13:43 ] · 95B35B755F51B5D1543157ECB259C1A8FB776D26

Скачать .torrent

Скачать .torrent

145 KB

Статус: проверено
.torrent скачан: 10 раз
Размер: 14,38 GB
Правила
Похожие темы

[Профиль] [ЛС]
Показать сообщения:    
Ответить на тему

Текущее время: 25-Июн 11:26

Часовой пояс: UTC + 4



Вы не можете начинать темы
Вы не можете отвечать на сообщения
Вы не можете редактировать свои сообщения
Вы не можете удалять свои сообщения
Вы не можете голосовать в опросах
Вы не можете прикреплять файлы к сообщениям
Вы можете скачивать файлы
Анализ веб сайтов Яндекс.Метрика