Ангел / El Ángel (Луис Ортега) [2018, драма, криминал, биография, BDRip 1080p от селезень | iTunes]

Ответить на тему
Статистика раздачи [Обновить пиров]
Размер:  8,82 GB   |    Зарегистрирован:  3 месяца 20 дней   |    .torrent скачан:  4 раза
Сидов:  314  [  0 KB/s  ]   Личеров:  12  [  0 KB/s  ]   Подробная статистика пиров
 
   
 
 
Автор Сообщение

Skorp10n ®

Оффлайн

 Активный раздающий 1 Активный раздающий 2
 Активный релизер 1000 Активный релизер 1500 Активный релизер 2000 Активный релизер 250 Активный релизер 3000 Активный релизер 500 Активный релизер 5000 Активный релизер Фильмов (1000) Активный релизер Фильмов (300) Активный релизер Фильмов (600) Активный Форумчанин 1 Активный Форумчанин 2 Активный Форумчанин 3 Активный Форумчанин 4 Друг трекера Карма 1000 Карма 1500 Карма 3000 Карма 500 Меценат Ни дня без новостей Орденосец 1 степени Орденосец 2 степени Орденосец 3 степени Почетный орденосец Почетный репортер С Новым 2016 Годом! С Новым 2017 Годом! С Новым 2018 Годом! С Новым 2019 Годом! Супер Мега Контер Квейк ТОП-10

Пол: Мужской

Стаж: 3 года 11 месяцев

Наличие запрета:

Сообщений: 10847

Откуда: Free-Tor.com

Отдача: не определено

Загрузка: не определено

Нажми

Создавать темы 27-Мар-2019 13:32

[Цитировать]

Информация о фильме- Название: Ангел
Оригинальное название: El ángel
Год выхода: 2018
Жанр: Драма, криминал, биография
Режиссер: Луис Ортега
В ролях: Лоренцо Ферро, Чино Дарин, Даниэль Фанего, Мерседес Моран, Сесилия Рот, Питер Ланзани, Луис Ньекко, Малена Вилла, Уильям Просюк, Фернандо Ной- -О фильме: Карлитосу 17, у него ангельское лицо и дьявольские наклонности. В школе он знакомится с Рамоном, с которым они составляют блистательный и беспощадный дуэт. На пути изощренного воровства и лжи их совместные преступления становятся лучшим самовыражением.-Страна: Аргентина, Испания
Студия: El Deseo, Instituto Nacional de Cine y Artes Audiovisuales, Instituto de Crédito Oficial
Продолжительность: 01:54:38
Перевод: Дублированный | iTunes-Качество: BDRip 1080p
Видео: MPEG-4 AVC, 1920x1038, 10 Mbit/s, 24 fps
Звук:
Аудио #01: 48 kHz, AC3, 5.1, 384 Kbps | iTunes | RUS |
Аудио #02: 48 kHz, AC3, 5.1, 640 Kbps | Оригинал | SPA |
Субтитры: Английские-

Скриншоты

--
-

MI

-General
Unique ID : 109242151095863134812573718822446813345 (0x522F45E33A7678A9CDC243BFC4D5D0A1)
Complete name : D:Video111El.Angel.2018.BDRip.1080p.seleZen.mkv
Format : Matroska
Format version : Version 4
File size : 8.82 GiB
Duration : 1 h 54 min
Overall bit rate : 11.0 Mb/s
Movie name : El Angel 2018 from селезень
Encoded date : UTC 2019-03-26 15:05:53
Writing application : mkvmerge v32.0.0 ('Astral Progressions') 64-bit
Writing library : libebml v1.3.7 + libmatroska v1.5.0
Video
ID : 1
Format : AVC
Format/Info : Advanced Video Codec
Format profile : [email protected]
Format settings : CABAC / 4 Ref Frames
Format settings, CABAC : Yes
Format settings, ReFrames : 4 frames
Codec ID : V_MPEG4/ISO/AVC
Duration : 1 h 54 min
Bit rate : 10 000 kb/s
Width : 1 920 pixels
Height : 1 038 pixels
Display aspect ratio : 1.85:1
Frame rate mode : Constant
Frame rate : 24.000 FPS
Color space : YUV
Chroma subsampling : 4:2:0
Bit depth : 8 bits
Scan type : Progressive
Bits/(Pixel*Frame) : 0.209
Stream size : 8.00 GiB (91%)
Title : seleZen
Writing library : x264 core 148 r2705kMod 3f5ed56
Encoding settings : cabac=1 / ref=4 / deblock=1:-2:-2 / analyse=0x3:0x133 / me=umh / subme=10 / psy=1 / fade_compensate=0.00 / psy_rd=1.20:0.07 / mixed_ref=1 / me_range=24 / chroma_me=1 / trellis=2 / 8x8dct=1 / cqm=0 / deadzone=21,11 / fast_pskip=0 / chroma_qp_offset=-3 / threads=12 / lookahead_threads=2 / sliced_threads=0 / nr=0 / decimate=0 / interlaced=0 / bluray_compat=0 / constrained_intra=0 / fgo=0 / bframes=8 / b_pyramid=2 / b_adapt=2 / b_bias=0 / direct=3 / weightb=1 / open_gop=0 / weightp=2 / keyint=240 / keyint_min=24 / scenecut=40 / intra_refresh=0 / rc_lookahead=50 / rc=2pass / mbtree=0 / bitrate=10000 / ratetol=1.0 / qcomp=0.60 / qpmin=0 / qpmax=51 / qpstep=4 / cplxblur=20.0 / qblur=0.5 / vbv_maxrate=50000 / vbv_bufsize=62500 / nal_hrd=none / filler=0 / ip_ratio=1.40 / pb_ratio=1.30 / aq=3:0.80
Language : English
Default : Yes
Forced : No
Audio #1
ID : 2
Format : AC-3
Format/Info : Audio Coding 3
Commercial name : Dolby Digital
Codec ID : A_AC3
Duration : 1 h 54 min
Bit rate mode : Constant
Bit rate : 384 kb/s
Channel(s) : 6 channels
Channel layout : L R C LFE Ls Rs
Sampling rate : 48.0 kHz
Frame rate : 31.250 FPS (1536 SPF)
Bit depth : 16 bits
Compression mode : Lossy
Stream size : 315 MiB (3%)
Title : iTunes
Language : Russian
Service kind : Complete Main
Default : Yes
Forced : Yes
Audio #2
ID : 3
Format : AC-3
Format/Info : Audio Coding 3
Commercial name : Dolby Digital
Codec ID : A_AC3
Duration : 1 h 54 min
Bit rate mode : Constant
Bit rate : 640 kb/s
Channel(s) : 6 channels
Channel layout : L R C LFE Ls Rs
Sampling rate : 48.0 kHz
Frame rate : 31.250 FPS (1536 SPF)
Bit depth : 16 bits
Compression mode : Lossy
Stream size : 525 MiB (6%)
Title : Original
Language : Spanish
Service kind : Complete Main
Default : No
Forced : No
Text
ID : 4
Format : UTF-8
Codec ID : S_TEXT/UTF8
Codec ID/Info : UTF-8 Plain Text
Duration : 1 h 46 min
Bit rate : 32 b/s
Count of elements : 867
Stream size : 25.3 KiB (0%)
Language : English
Default : No
Forced : No
Menu
00:00:00.000 : :Chapter 01
00:08:13.833 : :Chapter 02
00:14:23.792 : :Chapter 03
00:23:42.292 : :Chapter 04
00:31:55.542 : :Chapter 05
00:42:42.000 : :Chapter 06
00:54:50.000 : :Chapter 07
01:02:07.375 : :Chapter 08
01:14:52.000 : :Chapter 09
01:23:13.375 : :Chapter 10
01:34:37.625 : :Chapter 11
01:40:30.083 : :Chapter 12-
-Релиз от: -
[free-tor.info].t20276.torrent 
Торрент: Зарегистрирован [ 2019-03-27 13:32 ] · 34F9C3677A521A2EAAFA70D91176072067333F09

Скачать .torrent

Скачать .torrent

177 KB

Статус: проверено
.torrent скачан: 4 раз
Размер: 8,82 GB
Правила
Похожие темы

[Профиль] [ЛС]
Показать сообщения:    
Ответить на тему

Текущее время: 17-Июл 02:18

Часовой пояс: UTC + 4



Вы не можете начинать темы
Вы не можете отвечать на сообщения
Вы не можете редактировать свои сообщения
Вы не можете удалять свои сообщения
Вы не можете голосовать в опросах
Вы не можете прикреплять файлы к сообщениям
Вы можете скачивать файлы
Анализ веб сайтов Яндекс.Метрика