Стэн и Олли / Stan & Ollie (Джон С. Бейрд) [2018, драма, комедия, биография, BDRip 1080p | iTunes]

Ответить на тему
Статистика раздачи [Обновить пиров]
Размер:  5,87 GB   |    Зарегистрирован:  3 месяца 18 дней   |    .torrent скачан:  6 раз
Сидов:  146  [  0 KB/s  ]   Личеров:  5  [  0 KB/s  ]   Подробная статистика пиров
 
   
 
 
Автор Сообщение

Skorp10n ®

Оффлайн

 Активный раздающий 1 Активный раздающий 2
 Активный релизер 1000 Активный релизер 1500 Активный релизер 2000 Активный релизер 250 Активный релизер 3000 Активный релизер 500 Активный релизер 5000 Активный релизер Фильмов (1000) Активный релизер Фильмов (300) Активный релизер Фильмов (600) Активный Форумчанин 1 Активный Форумчанин 2 Активный Форумчанин 3 Активный Форумчанин 4 Друг трекера Карма 1000 Карма 1500 Карма 3000 Карма 500 Меценат Ни дня без новостей Орденосец 1 степени Орденосец 2 степени Орденосец 3 степени Почетный орденосец Почетный репортер С Новым 2016 Годом! С Новым 2017 Годом! С Новым 2018 Годом! С Новым 2019 Годом! Супер Мега Контер Квейк ТОП-10

Пол: Мужской

Стаж: 3 года 11 месяцев

Наличие запрета:

Сообщений: 10847

Откуда: Free-Tor.com

Отдача: не определено

Загрузка: не определено

Нажми

Создавать темы 28-Мар-2019 12:45

[Цитировать]

Информация о фильме- Название: Стэн и Олли
Оригинальное название: Stan & Ollie
Год выхода: 2018
Жанр: Драма, комедия, биография
Страна: Великобритания, Канада, США
Перевод: Профессиональный (многоголосый закадровый) | iTunes
Продолжительность: 01:37:48
Режиссер: Джон С. Бейрд
В ролях: Джон Си Райли, Ширли Хендерсон, Стив Куган, Нина Арианда, Дэнни Хьюстон, Стефани Хаям, Ричард Кэнт, Руфус Джонс, Сьюзи Кэйн, Джон Хеншоу и др.-О фильме: Худой британец Стэн Лорел и полный американец Оливер Харди стали одним из самых известных дуэтов американского классического кинематографа. До 1940 года они снимались на студии Roach, затем появились в восьми комедиях студий Fox и MGM, но к середине 1940-х они завязали с кинематографом и начали выступать вживую. История о том, что происходило за сценой, и как на самом деле жили люди, привыкшие смешить людей.--Файл-Качество: BDRip 1080p
Видео: MPEG-4 AVC, 1920x804, 7768 kbps, 23,976 fps
Звук#1: русский, AC3, 5.1 ch, 48 kHz, 384 kbps | iTunes
Звук#2: английский, AC3, 5.1 ch, 48 kHz, 448 kbps | оригинал
Субтитры: русские (полные), украинские (полные), английские (полные, SDH)-

MI

-General
Уникальный идентификатор : 173163480307511137429302252450049726728 (0x824612BD39C5352E9FFC5EB8BAE89908)
Полное имя : E:TorrentStan&OllieBDRip1080p.mkv
Формат : Matroska
Версия формата : Version 4 / Version 2
Размер файла : 5.87 GiB
Продолжительность : 1 h 37 min
Общий поток : 8 595 kb/s
Дата кодирования : UTC 2019-03-27 19:28:22
Программа кодирования : mkvmerge v9.5.0 ('Quiet Fire') 64bit
Библиотека кодирования : libebml v1.3.4 + libmatroska v1.4.5
Video
Идентификатор : 1
Формат : AVC
Формат/Информация : Advanced Video Codec
Профиль формата : [email protected]
Настройки формата : CABAC / 5 Ref Frames
Параметр CABAC формата : Yes
Параметр RefFrames формата : 5 frames
Идентификатор кодека : V_MPEG4/ISO/AVC
Продолжительность : 1 h 37 min
Битрейт : 7 768 kb/s
Ширина : 1 920 pixels
Высота : 804 pixels
Соотношение сторон : 2.40:1
Режим частоты кадров : Constant
Частота кадров : 23.976 (24000/1001) FPS
Цветовое пространство : YUV
Субдискретизация насыщенности : 4:2:0
Битовая глубина : 8 bits
Тип развёртки : Progressive
Бит/(Пиксели*Кадры) : 0.210
Размер потока : 5.30 GiB (90%)
Библиотека кодирования : x264 core 157 r2935 545de2f
Настройки программы : cabac=1 / ref=5 / deblock=1:-1:-1 / analyse=0x3:0x113 / me=umh / subme=11 / psy=1 / psy_rd=1.00:0.00 / mixed_ref=1 / me_range=32 / chroma_me=1 / trellis=2 / 8x8dct=1 / cqm=0 / deadzone=21,11 / fast_pskip=0 / chroma_qp_offset=-2 / threads=9 / lookahead_threads=2 / sliced_threads=0 / nr=0 / decimate=0 / interlaced=0 / bluray_compat=0 / constrained_intra=0 / bframes=12 / b_pyramid=2 / b_adapt=2 / b_bias=0 / direct=3 / weightb=1 / open_gop=0 / weightp=2 / keyint=240 / keyint_min=24 / scenecut=40 / intra_refresh=0 / rc_lookahead=120 / rc=2pass / mbtree=0 / bitrate=7768 / ratetol=1.0 / qcomp=0.70 / qpmin=0 / qpmax=69 / qpstep=4 / cplxblur=20.0 / qblur=0.5 / vbv_maxrate=50000 / vbv_bufsize=62500 / nal_hrd=none / filler=0 / ip_ratio=1.40 / pb_ratio=1.30 / aq=1:1.00
Язык : English
Default : Yes
Forced : No
Цветовой диапазон : Limited
Основные цвета : BT.709
Характеристики трансфера : BT.709
Коэффициенты матрицы : BT.709
Audio #1
Идентификатор : 2
Формат : AC-3
Формат/Информация : Audio Coding 3
Идентификатор кодека : A_AC3
Продолжительность : 1 h 37 min
Вид битрейта : Constant
Битрейт : 384 kb/s
Каналы : 6 channels
Расположение каналов : Front: L C R, Side: L R, LFE
Частота : 48.0 kHz
Частота кадров : 31.250 FPS (1536 SPF)
Битовая глубина : 16 bits
Метод сжатия : Lossy
Размер потока : 269 MiB (4%)
Язык : Russian
Default : Yes
Forced : No
Audio #2
Идентификатор : 3
Формат : AC-3
Формат/Информация : Audio Coding 3
Идентификатор кодека : A_AC3
Продолжительность : 1 h 37 min
Вид битрейта : Constant
Битрейт : 448 kb/s
Каналы : 6 channels
Расположение каналов : Front: L C R, Side: L R, LFE
Частота : 48.0 kHz
Частота кадров : 31.250 FPS (1536 SPF)
Битовая глубина : 16 bits
Метод сжатия : Lossy
Размер потока : 313 MiB (5%)
Язык : English
Default : No
Forced : No
Text #1
Идентификатор : 4
Формат : UTF-8
Идентификатор кодека : S_TEXT/UTF8
Идентификатор кодека/Информация : UTF-8 Plain Text
Продолжительность : 1 h 36 min
Битрейт : 105 b/s
ElementCount : 1487
Размер потока : 74.8 KiB (0%)
Заголовок : rusFull
Язык : Russian
Default : No
Forced : No
Text #2
Идентификатор : 5
Формат : UTF-8
Идентификатор кодека : S_TEXT/UTF8
Идентификатор кодека/Информация : UTF-8 Plain Text
Продолжительность : 1 h 36 min
Битрейт : 90 b/s
ElementCount : 1485
Размер потока : 63.9 KiB (0%)
Заголовок : ukrFull
Язык : Ukrainian
Default : No
Forced : No
Text #3
Идентификатор : 6
Формат : UTF-8
Идентификатор кодека : S_TEXT/UTF8
Идентификатор кодека/Информация : UTF-8 Plain Text
Продолжительность : 1 h 30 min
Битрейт : 74 b/s
ElementCount : 1554
Размер потока : 49.6 KiB (0%)
Заголовок : engFull
Язык : English
Default : No
Forced : No
Text #4
Идентификатор : 7
Формат : UTF-8
Идентификатор кодека : S_TEXT/UTF8
Идентификатор кодека/Информация : UTF-8 Plain Text
Продолжительность : 1 h 34 min
Битрейт : 78 b/s
ElementCount : 1753
Размер потока : 54.2 KiB (0%)
Заголовок : engSDH
Язык : English
Default : No
Forced : No
Menu
00:00:00.000 : :Chapter 01
00:09:06.963 : :Chapter 02
00:14:02.258 : :Chapter 03
00:18:18.138 : :Chapter 04
00:25:02.167 : :Chapter 05
00:32:23.733 : :Chapter 06
00:37:37.296 : :Chapter 07
00:43:44.622 : :Chapter 08
00:52:04.579 : :Chapter 09
01:00:18.364 : :Chapter 10
01:03:37.396 : :Chapter 11
01:07:50.649 : :Chapter 12
01:13:54.972 : :Chapter 13
01:16:19.908 : :Chapter 14
01:22:15.847 : :Chapter 15
01:25:42.345 : :Chapter 16-
-

Скриншоты

--
-Рип и релиз от: -
[free-tor.info].t20311.torrent 
Торрент: Зарегистрирован [ 2019-03-28 12:45 ] · F713DFB7032026CA58A8EF003555A140D1CF7099

Скачать .torrent

Скачать .torrent

16 KB

Статус: проверено
.torrent скачан: 6 раз
Размер: 5,87 GB
Правила
Похожие темы

[Профиль] [ЛС]
Показать сообщения:    
Ответить на тему

Текущее время: 16-Июл 03:55

Часовой пояс: UTC + 4



Вы не можете начинать темы
Вы не можете отвечать на сообщения
Вы не можете редактировать свои сообщения
Вы не можете удалять свои сообщения
Вы не можете голосовать в опросах
Вы не можете прикреплять файлы к сообщениям
Вы можете скачивать файлы
Анализ веб сайтов Яндекс.Метрика