Тень / Ying / Shadow (Имоу Чжан) [2018, драма, боевик, BDRip 1080р | D, P | iTunes]

Ответить на тему
Статистика раздачи [Обновить пиров]
Размер:  8,4 GB   |    Зарегистрирован:  3 месяца 14 дней   |    .torrent скачан:  6 раз
Сидов:  241  [  0 KB/s  ]   Личеров:  36  [  0 KB/s  ]   Подробная статистика пиров
 
   
 
 
Автор Сообщение

Skorp10n ®

Оффлайн

 Активный раздающий 1 Активный раздающий 2
 Активный релизер 1000 Активный релизер 1500 Активный релизер 2000 Активный релизер 250 Активный релизер 3000 Активный релизер 500 Активный релизер 5000 Активный релизер Фильмов (1000) Активный релизер Фильмов (300) Активный релизер Фильмов (600) Активный Форумчанин 1 Активный Форумчанин 2 Активный Форумчанин 3 Активный Форумчанин 4 Друг трекера Карма 1000 Карма 1500 Карма 3000 Карма 500 Меценат Ни дня без новостей Орденосец 1 степени Орденосец 2 степени Орденосец 3 степени Почетный орденосец Почетный репортер С Новым 2016 Годом! С Новым 2017 Годом! С Новым 2018 Годом! С Новым 2019 Годом! Супер Мега Контер Квейк ТОП-10

Пол: Мужской

Стаж: 3 года 11 месяцев

Наличие запрета:

Сообщений: 10847

Откуда: Free-Tor.com

Отдача: не определено

Загрузка: не определено

Нажми

Создавать темы 01-Апр-2019 11:26

[Цитировать]

Информация о фильме- Название: Тень
Оригинальное название: Ying / Shadow
Год выхода: 2018
Жанр: Драма, боевик
Режиссер: Имоу Чжан
В ролях: Чао Ден, Ли Сунь, Кай Чжэн, Цяньюань Ван, Цзинчунь Ван, Цзюнь Ху, Сяотун Гуань, Лэй У, Бай Фэн-О фильме:-Сюжет разворачивается в эпоху Троецарствия, в древнем Китае с 220 г. по 280 г, в эпоху борьбы и ожесточенного противостояния между тремя различными государствами Китая. Чтобы обезопасить себя от наемных убийц в условиях постоянных войн и внутренних распрей, императоры и чиновники находили себе двойников, так называемых Теней. Эти люди верно служили своим хозяевам многие годы, рискуя ради них своей жизнью. Эта история храброго мужчины, который еще в детстве стал Тенью, она начинается, когда жене главного командира царства Пэй приходится принять самое сложное решение в ее жизни.- -Страна: Китай, Гонконг
Студия: Perfect Village Entertainment, LeVision Pictures, Shanghai Tencent Pictures Culture Media
Продолжительность: 01:55:47
Перевод: Дублированный | iTunes |, Профессиональный (многоголосый, закадровый) | HDRezka Studio-Файл-Качество: BDRip 1080р | D, P | iTunes
Видео: AVC/H.264, 1920x806, ~8305 Кbps, 24 fps
Звук:
Аудио 1: AC3, 6 ch, 384 Kbps - Русский (DUB)
Аудио 2: AC3, 2 ch, 192 Kbps - Русский (MVO)
Аудио 3: DTS, 6 ch, 1509 Kbps - Китайский
Субтитры: Русские, Английские-

Mediainfo

-Общее
Уникальный идентификатор : 240975172310136778824828523099824418251 (0xB54A214907A255710FEC8A6F715D6DCB)
Полное имя : Shadow.2018.BDRip.1080p.W.mkv
Формат : Matroska
Версия формата : Version 4
Размер файла : 8,40 Гбайт
Продолжительность : 1 ч. 55 м.
Общий поток : 10,4 Мбит/сек
Название фильма : Shadow.2018.BDRip.1080p.W
Дата кодирования : UTC 2019-03-28 15:51:29
Программа кодирования : mkvmerge v23.0.0 ('The Bride Said No') 64-bit
Библиотека кодирования : libebml v1.3.6 + libmatroska v1.4.9
Видео
Идентификатор : 1
Формат : AVC
Формат/Информация : Advanced Video Codec
Профиль формата : [email protected]
Настройки формата : CABAC / 5 Ref Frames
Параметр CABAC формата : Да
Параметр RefFrames формата : 5 кадров
Идентификатор кодека : V_MPEG4/ISO/AVC
Продолжительность : 1 ч. 55 м.
Битрейт : 8305 Кбит/сек
Ширина : 1920 пикселей
Высота : 806 пикселей
Соотношение сторон : 2,40:1
Режим частоты кадров : Постоянный
Частота кадров : 24,000 кадра/сек
Цветовое пространство : YUV
Субдискретизация насыщенности : 4:2:0
Битовая глубина : 8 бит
Тип развёртки : Прогрессивная
Бит/(Пиксели*Кадры) : 0.224
Размер потока : 6,71 Гбайт (80%)
Заголовок : rip by -=walledol=-
Библиотека кодирования : x264 core 157 r2935 545de2f
Настройки программы : cabac=1 / ref=5 / deblock=1:-3:-3 / analyse=0x3:0x133 / me=umh / subme=11 / psy=1 / psy_rd=1.00:0.00 / mixed_ref=1 / me_range=32 / chroma_me=1 / trellis=2 / 8x8dct=1 / cqm=0 / deadzone=21,11 / fast_pskip=0 / chroma_qp_offset=-2 / threads=12 / lookahead_threads=3 / sliced_threads=0 / nr=0 / decimate=1 / interlaced=0 / bluray_compat=0 / constrained_intra=0 / bframes=10 / b_pyramid=2 / b_adapt=2 / b_bias=0 / direct=3 / weightb=1 / open_gop=0 / weightp=2 / keyint=240 / keyint_min=24 / scenecut=40 / intra_refresh=0 / rc_lookahead=60 / rc=2pass / mbtree=0 / bitrate=8305 / ratetol=1.0 / qcomp=0.60 / qpmin=0 / qpmax=69 / qpstep=4 / cplxblur=20.0 / qblur=0.5 / vbv_maxrate=30000 / vbv_bufsize=33000 / nal_hrd=none / filler=0 / ip_ratio=1.40 / pb_ratio=1.30 / aq=3:0.80
Язык : Chinese
Default : Да
Forced : Нет
Аудио #1
Идентификатор : 2
Формат : AC-3
Формат/Информация : Audio Coding 3
Коммерческое название : Dolby Digital
Идентификатор кодека : A_AC3
Продолжительность : 1 ч. 55 м.
Вид битрейта : Постоянный
Битрейт : 384 Кбит/сек
Каналы : 6 каналов
Channel layout : L R C LFE Ls Rs
Частота : 48,0 КГц
Частота кадров : 31,250 кадров/сек (1536 SPF)
Битовая глубина : 16 бит
Метод сжатия : С потерями
Размер потока : 318 Мбайт (4%)
Заголовок : DUB | iTunes
Язык : Russian
ServiceKind : Complete Main
Default : Да
Forced : Нет
Аудио #2
Идентификатор : 3
Формат : AC-3
Формат/Информация : Audio Coding 3
Коммерческое название : Dolby Digital
Идентификатор кодека : A_AC3
Продолжительность : 1 ч. 55 м.
Вид битрейта : Постоянный
Битрейт : 192 Кбит/сек
Каналы : 2 канала
Channel layout : L R
Частота : 48,0 КГц
Частота кадров : 31,250 кадров/сек (1536 SPF)
Битовая глубина : 16 бит
Метод сжатия : С потерями
Размер потока : 159 Мбайт (2%)
Заголовок : MVO | HDRezka Studio
Язык : Russian
ServiceKind : Complete Main
Default : Нет
Forced : Нет
Аудио #3
Идентификатор : 4
Формат : DTS
Формат/Информация : Digital Theater Systems
Идентификатор кодека : A_DTS
Продолжительность : 1 ч. 55 м.
Вид битрейта : Постоянный
Битрейт : 1509 Кбит/сек
Каналы : 6 каналов
Channel layout : C L R Ls Rs LFE
Частота : 48,0 КГц
Частота кадров : 93,750 кадра/сек (512 SPF)
Битовая глубина : 24 бит
Метод сжатия : С потерями
Размер потока : 1,22 Гбайт (15%)
Язык : Chinese
Default : Нет
Forced : Нет
Текст #1
Идентификатор : 5
Формат : UTF-8
Идентификатор кодека : S_TEXT/UTF8
Идентификатор кодека/Информация : UTF-8 Plain Text
Продолжительность : 1 ч. 45 м.
Битрейт : 52 бит/сек
ElementCount : 1050
Размер потока : 40,3 Кбайт (0%)
Язык : Russian
Default : Нет
Forced : Нет
Текст #2
Идентификатор : 6
Формат : UTF-8
Идентификатор кодека : S_TEXT/UTF8
Идентификатор кодека/Информация : UTF-8 Plain Text
Продолжительность : 1 ч. 44 м.
Битрейт : 28 бит/сек
ElementCount : 1072
Размер потока : 21,7 Кбайт (0%)
Язык : English
Default : Нет
Forced : Нет
Меню
00:00:00.000 : en:Chapter 01
00:12:27.250 : en:Chapter 02
00:19:40.958 : en:Chapter 03
00:30:19.875 : en:Chapter 04
00:41:09.958 : en:Chapter 05
00:48:45.125 : en:Chapter 06
00:54:49.875 : en:Chapter 07
01:02:35.125 : en:Chapter 08
01:10:27.083 : en:Chapter 09
01:20:40.208 : en:Chapter 10
01:28:10.250 : en:Chapter 11
01:38:00.333 : en:Chapter 12-
-

Скриншоты

--
-
[free-tor.info].t20337.torrent 
Торрент: Зарегистрирован [ 2019-04-01 11:26 ] · 1E935B152F46554983C1BEEB93C734C0D2BDEE7E

Скачать .torrent

Скачать .torrent

43 KB

Статус: проверено
.torrent скачан: 6 раз
Размер: 8,4 GB
Правила
Похожие темы

[Профиль] [ЛС]
Показать сообщения:    
Ответить на тему

Текущее время: 16-Июл 03:55

Часовой пояс: UTC + 4



Вы не можете начинать темы
Вы не можете отвечать на сообщения
Вы не можете редактировать свои сообщения
Вы не можете удалять свои сообщения
Вы не можете голосовать в опросах
Вы не можете прикреплять файлы к сообщениям
Вы можете скачивать файлы
Анализ веб сайтов Яндекс.Метрика