Ван Гог. На пороге вечности / At Eternity's Gate (Джулиан Шнабель) [2018, драма, биография, BDRip 1080p от селезень | iTunes]

Ответить на тему
Статистика раздачи [Обновить пиров]
Размер:  13,43 GB   |    Зарегистрирован:  3 месяца 15 дней   |    .torrent скачан:  3 раза
Сидов:  239  [  0 KB/s  ]   Личеров:  22  [  0 KB/s  ]   Подробная статистика пиров
 
   
 
 
Автор Сообщение

Skorp10n ®

Оффлайн

 Активный раздающий 1 Активный раздающий 2
 Активный релизер 1000 Активный релизер 1500 Активный релизер 2000 Активный релизер 250 Активный релизер 3000 Активный релизер 500 Активный релизер 5000 Активный релизер Фильмов (1000) Активный релизер Фильмов (300) Активный релизер Фильмов (600) Активный Форумчанин 1 Активный Форумчанин 2 Активный Форумчанин 3 Активный Форумчанин 4 Друг трекера Карма 1000 Карма 1500 Карма 3000 Карма 500 Меценат Ни дня без новостей Орденосец 1 степени Орденосец 2 степени Орденосец 3 степени Почетный орденосец Почетный репортер С Новым 2016 Годом! С Новым 2017 Годом! С Новым 2018 Годом! С Новым 2019 Годом! Супер Мега Контер Квейк ТОП-10

Пол: Мужской

Стаж: 3 года 11 месяцев

Наличие запрета:

Сообщений: 10847

Откуда: Free-Tor.com

Отдача: не определено

Загрузка: не определено

Нажми

Создавать темы 01-Апр-2019 11:34

[Цитировать]

Информация о фильме- Название: Ван Гог. На пороге вечности
Оригинальное название: At Eternity's Gate
Год выхода: 2018
Жанр: Драма, биография
Режиссер: Джулиан Шнабель
В ролях: Уиллем Дефо, Руперт Френд, Оскар Айзек, Мадс Миккельсен, Матьё Амальрик, Эмманюэль Сенье, Нильс Ареструп, Анн Консиньи, Амира Казар, Венсан Перес- -О фильме: Винсент Ван Гог был одержим живописью и мечтал изменить мир. Он жил в Париже на Монмартре и водил дружбу с Полем Гогеном. Из спиртного отдавал предпочтение абсенту, а если уж влюблялся, то со всей страстью. В то время его холсты почти не продавались, а сегодня - одни из самых дорогих в мире. Как истинный гений, он всегда находился на пороге вечности...-Страна: Швейцария, Великобритания, Франция, США, Ирландия
Студия: CBS Films, Riverstone Pictures, SPK Pictures
Продолжительность: 01:51:17
Перевод: Дублированный | iTunes-Качество: BDRip 1080p
Видео: MPEG-4 AVC, 1920x800, 16.1 Mbit/s, 23.976 fps
Звук:
Аудио #01: 48 kHz, AC3, 5.1, 384 Kbps | iTunes | RUS |
Аудио #02: 48 kHz, AC3, 2.0, 192 Kbps | iTunes | UKR |
Аудио #03: 48 kHz, AC3, 5.1, 640 Kbps | Оригинал | ENG |
Субтитры: Русские (Full), английские-

Скриншоты

--
-

MI

-General
Unique ID : 170852953190789528855400655083728922284 (0x808914F505330BF3DD291451E519E6AC)
Complete name : D:Video111At Eternity's.Gate.2018.BDRip.1080p.seleZen.mkv
Format : Matroska
Format version : Version 4
File size : 13.4 GiB
Duration : 1 h 51 min
Overall bit rate : 17.3 Mb/s
Movie name : At Eternity's Gate 2018 from селезень
Encoded date : UTC 2019-03-28 17:30:49
Writing application : mkvmerge v32.0.0 ('Astral Progressions') 64-bit
Writing library : libebml v1.3.7 + libmatroska v1.5.0
Video
ID : 1
Format : AVC
Format/Info : Advanced Video Codec
Format profile : [email protected]
Format settings : CABAC / 5 Ref Frames
Format settings, CABAC : Yes
Format settings, ReFrames : 5 frames
Codec ID : V_MPEG4/ISO/AVC
Duration : 1 h 51 min
Bit rate : 16.1 Mb/s
Width : 1 920 pixels
Height : 800 pixels
Display aspect ratio : 2.40:1
Frame rate mode : Constant
Frame rate : 23.976 (24000/1001) FPS
Color space : YUV
Chroma subsampling : 4:2:0
Bit depth : 8 bits
Scan type : Progressive
Bits/(Pixel*Frame) : 0.436
Stream size : 12.5 GiB (93%)
Title : SPEED
Writing library : x264 core 157 r2867+103 0d6443f t_mod_Custom_2 [[email protected] X86_64]
Encoding settings : cabac=1 / ref=5 / deblock=1:-3:-3 / analyse=0x3:0x133 / me=umh / subme=10 / psy=1 / fade_compensate=0.00 / psy_rd=1.03:0.00 / mixed_ref=1 / me_range=32 / chroma_me=1 / trellis=2 / 8x8dct=1 / cqm=0 / deadzone=21,11 / fast_pskip=0 / chroma_qp_offset=-2 / threads=12 / lookahead_threads=3 / sliced_threads=0 / nr=0 / decimate=0 / interlaced=0 / bluray_compat=0 / constrained_intra=0 / fgo=0 / bframes=14 / b_pyramid=2 / b_adapt=2 / b_bias=0 / direct=3 / weightb=1 / open_gop=0 / weightp=2 / keyint=250 / keyint_min=23 / scenecut=40 / intra_refresh=0 / rc=crf / mbtree=0 / crf=18.3000 / qcomp=0.60 / qpmin=0:0:0 / qpmax=69:69:69 / qpstep=4 / ip_ratio=1.30 / pb_ratio=1.20 / aq=3:0.78 / aq-sensitivity=10.00 / aq-factor=1.00:1.00:1.00 / aq2=0 / aq3=0 / zones=24,263,crf=16.5/18327,18512,crf=17/36108,36169,crf=17/47365,48329,crf=17.3/59725,60502,crf=16.9/60853,62520,crf=17
Language : English
Default : Yes
Forced : No
Audio #1
ID : 2
Format : AC-3
Format/Info : Audio Coding 3
Commercial name : Dolby Digital
Codec ID : A_AC3
Duration : 1 h 51 min
Bit rate mode : Constant
Bit rate : 384 kb/s
Channel(s) : 6 channels
Channel layout : L R C LFE Ls Rs
Sampling rate : 48.0 kHz
Frame rate : 31.250 FPS (1536 SPF)
Bit depth : 16 bits
Compression mode : Lossy
Stream size : 306 MiB (2%)
Title : iTunes
Language : Russian
Service kind : Complete Main
Default : Yes
Forced : Yes
Audio #2
ID : 3
Format : AC-3
Format/Info : Audio Coding 3
Commercial name : Dolby Digital
Codec ID : A_AC3
Duration : 1 h 51 min
Bit rate mode : Constant
Bit rate : 192 kb/s
Channel(s) : 2 channels
Channel layout : L R
Sampling rate : 48.0 kHz
Frame rate : 31.250 FPS (1536 SPF)
Bit depth : 16 bits
Compression mode : Lossy
Stream size : 153 MiB (1%)
Title : iTunes
Language : Ukrainian
Service kind : Complete Main
Default : No
Forced : No
Audio #3
ID : 4
Format : AC-3
Format/Info : Audio Coding 3
Commercial name : Dolby Digital
Codec ID : A_AC3
Duration : 1 h 51 min
Bit rate mode : Constant
Bit rate : 640 kb/s
Channel(s) : 6 channels
Channel layout : L R C LFE Ls Rs
Sampling rate : 48.0 kHz
Frame rate : 31.250 FPS (1536 SPF)
Bit depth : 16 bits
Compression mode : Lossy
Stream size : 509 MiB (4%)
Title : Original
Language : English
Service kind : Complete Main
Default : No
Forced : No
Text #1
ID : 5
Format : UTF-8
Codec ID : S_TEXT/UTF8
Codec ID/Info : UTF-8 Plain Text
Duration : 1 h 41 min
Bit rate : 77 b/s
Count of elements : 899
Stream size : 57.1 KiB (0%)
Title : Full
Language : Russian
Default : No
Forced : No
Text #2
ID : 6
Format : UTF-8
Codec ID : S_TEXT/UTF8
Codec ID/Info : UTF-8 Plain Text
Duration : 1 h 38 min
Bit rate : 41 b/s
Count of elements : 817
Stream size : 29.8 KiB (0%)
Title : Full
Language : English
Default : No
Forced : No
Menu
00:00:00.000 : :Chapter 1
00:07:12.849 : :Chapter 2
00:11:56.215 : :Chapter 3
00:20:15.756 : :Chapter 4
00:29:23.762 : :Chapter 5
00:33:38.683 : :Chapter 6
00:41:23.481 : :Chapter 7
00:48:02.963 : :Chapter 8
00:55:11.308 : :Chapter 9
01:02:23.907 : :Chapter 10
01:07:23.664 : :Chapter 11
01:14:19.455 : :Chapter 12
01:25:51.104 : :Chapter 13
01:27:59.065 : :Chapter 14
01:34:36.504 : :Chapter 15
01:42:08.831 : :Chapter 16-
-Релиз от: -
[free-tor.info].t20340.torrent 
Торрент: Зарегистрирован [ 2019-04-01 11:34 ] · CAD4D9C31F89C34B2674CBD1530856CE18BBF72F

Скачать .torrent

Скачать .torrent

135 KB

Статус: проверено
.torrent скачан: 3 раз
Размер: 13,43 GB
Правила
Похожие темы

[Профиль] [ЛС]
Показать сообщения:    
Ответить на тему

Текущее время: 17-Июл 02:49

Часовой пояс: UTC + 4



Вы не можете начинать темы
Вы не можете отвечать на сообщения
Вы не можете редактировать свои сообщения
Вы не можете удалять свои сообщения
Вы не можете голосовать в опросах
Вы не можете прикреплять файлы к сообщениям
Вы можете скачивать файлы
Анализ веб сайтов Яндекс.Метрика