Мадонна: Рождение легенды / Madonna and the Breakfast Club (Гай Гуидо) [2019, документальный, биография, WEB-DL 1080p | iTunes]

Ответить на тему
Статистика раздачи [Обновить пиров]
Размер:  4,08 GB   |    Зарегистрирован:  3 месяца 15 дней   |    .torrent скачан:  6 раз
Сидов:  144  [  0 KB/s  ]   Личеров:  14  [  0 KB/s  ]   Подробная статистика пиров
 
   
 
 
Автор Сообщение

Skorp10n ®

Оффлайн

 Активный раздающий 1 Активный раздающий 2
 Активный релизер 1000 Активный релизер 1500 Активный релизер 2000 Активный релизер 250 Активный релизер 3000 Активный релизер 500 Активный релизер 5000 Активный релизер Фильмов (1000) Активный релизер Фильмов (300) Активный релизер Фильмов (600) Активный Форумчанин 1 Активный Форумчанин 2 Активный Форумчанин 3 Активный Форумчанин 4 Друг трекера Карма 1000 Карма 1500 Карма 3000 Карма 500 Меценат Ни дня без новостей Орденосец 1 степени Орденосец 2 степени Орденосец 3 степени Почетный орденосец Почетный репортер С Новым 2016 Годом! С Новым 2017 Годом! С Новым 2018 Годом! С Новым 2019 Годом! Супер Мега Контер Квейк ТОП-10

Пол: Мужской

Стаж: 3 года 11 месяцев

Наличие запрета:

Сообщений: 10847

Откуда: Free-Tor.com

Отдача: не определено

Загрузка: не определено

Нажми

Создавать темы 01-Апр-2019 11:44

[Цитировать]

Информация о фильме- Название: Мадонна: Рождение легенды
Оригинальное название: Madonna and the Breakfast Club
Год выпуска: 2019
Жанр: Документальный, биография
Режиссер: Гай Гуидо
В ролях: Джэми Олд, Дениза Юхос, Оскар Павел, Джордан Лёвенштайн, Джон Пол Харкинс, Дэн Гилрой, Майкл Варде, Саманта Николь Данн, Жан-Люк Макмартри, Али Миллер-О фильме: Сегодня у нее миллионы фанатов, ее обсуждают и критикуют самые известные критики, а подрастающее поколение пытается ей подражать. Речь в данном документально биографическом проекте идет о великой Мадонне. Эта картина посвящена тому, как легенда проходила этап рождения. Тогда, в 1979 году, в Нью-Йорке она была никому не известной, самой простой танцовщицей. Однажды ей в голову пришла гениальная идея - попробовать себя в роли певицы и она не прогадала. С этого момента началось стремительное восхождение на музыкальный олимп, где ее ждала слава и успех.--Выпущено: США
Продолжительность: 01:45:02
Перевод: Профессиональный (многоголосый, закадровый) | iTunes-Файл-Качество: WEB-DL 1080p
Контейнер: MKV
Видео: MPEG-4 AVC, 5070 Кбит/с, 1920x1080
Аудио: Русский: AC3, 6 ch, 384 Кбит/с - iTunes
Субтитры: Нет-Релиз от: -

Скриншоты

--
-

MediaInfo

-General
Unique ID : 231783128634367131532926941665508696130 (0xAE5FCE8AB6210346ACFB11C7C2D7A042)
Complete name : Madonna.And.The.Breakfast.Club.P.2019.WEB-DL.1080p.UNIONGANG.ELEKTRI4KA.mkv
Format : Matroska
Format version : Version 2
File size : 4.08 GiB
Duration : 1 h 45 min
Overall bit rate : 5 565 kb/s
Movie name : Madonna and the Breakfast Club UNIONGANG
Encoded date : UTC 2019-03-28 18:13:44
Writing application : mkvmerge v5.6.0 ('Kenya Kane') built on Jun 29 2012 15:01:44
Writing library : libebml v1.2.3 + libmatroska v1.3.0
Video
ID : 1
Format : AVC
Format/Info : Advanced Video Codec
Format profile : [email protected]
Format settings, CABAC : Yes
Format settings, RefFrames : 4 frames
Codec ID : V_MPEG4/ISO/AVC
Duration : 1 h 45 min
Bit rate : 5 070 kb/s
Width : 1 920 pixels
Height : 1 080 pixels
Display aspect ratio : 16:9
Frame rate mode : Constant
Frame rate : 24.000 FPS
Color space : YUV
Chroma subsampling : 4:2:0
Bit depth : 8 bits
Scan type : Progressive
Bits/(Pixel*Frame) : 0.102
Stream size : 3.72 GiB (91%)
Language : English
Default : Yes
Forced : No
Color range : Limited
Color primaries : BT.709
Transfer characteristics : BT.709
Matrix coefficients : BT.709
Audio
ID : 2
Format : AC-3
Format/Info : Audio Coding 3
Format settings, Endianness : Big
Codec ID : A_AC3
Duration : 1 h 45 min
Bit rate mode : Constant
Bit rate : 384 kb/s
Channel(s) : 6 channels
Channel positions : Front: L C R, Side: L R, LFE
Sampling rate : 48.0 kHz
Frame rate : 31.250 FPS (1536 SPF)
Bit depth : 16 bits
Compression mode : Lossy
Stream size : 288 MiB (7%)
Language : Russian
Service kind : Complete Main
Default : Yes
Forced : No
Menu
00:00:00.000 : ru:Глава 1
00:05:43.791 : ru:Глава 2
00:12:04.040 : ru:Глава 3
00:18:52.873 : ru:Глава 4
00:25:26.123 : ru:Глава 5
00:32:53.163 : ru:Глава 6
00:39:28.788 : ru:Глава 7
00:45:30.454 : ru:Глава 8
00:51:03.745 : ru:Глава 9
00:57:53.828 : ru:Глава 10
01:04:20.786 : ru:Глава 11
01:10:34.411 : ru:Глава 12
01:17:03.786 : ru:Глава 13
01:22:36.993 : ru:Глава 14
01:29:21.493 : ru:Глава 15
01:35:33.409 : ru:Глава 16-
-
[free-tor.info].t20345.torrent 
Торрент: Зарегистрирован [ 2019-04-01 11:44 ] · FF5EE86E192B4008AE4F9A792A1FADE3A4D6894C

Скачать .torrent

Скачать .torrent

21 KB

Статус: проверено
.torrent скачан: 6 раз
Размер: 4,08 GB
Правила
Похожие темы

[Профиль] [ЛС]
Показать сообщения:    
Ответить на тему

Текущее время: 17-Июл 02:30

Часовой пояс: UTC + 4



Вы не можете начинать темы
Вы не можете отвечать на сообщения
Вы не можете редактировать свои сообщения
Вы не можете удалять свои сообщения
Вы не можете голосовать в опросах
Вы не можете прикреплять файлы к сообщениям
Вы можете скачивать файлы
Анализ веб сайтов Яндекс.Метрика