Частная война / A Private War (Мэтт Хейнеман) [2018, драма, военный, биография, BDRip 1080p от селезень | iTunes]

Ответить на тему
Статистика раздачи [Обновить пиров]
Размер:  10,81 GB   |    Зарегистрирован:  3 месяца 14 дней   |    .torrent скачан:  5 раз
Сидов:  108  [  0 KB/s  ]   Личеров:  7  [  0 KB/s  ]   Подробная статистика пиров
 
   
 
 
Автор Сообщение

Skorp10n ®

Оффлайн

 Активный раздающий 1 Активный раздающий 2
 Активный релизер 1000 Активный релизер 1500 Активный релизер 2000 Активный релизер 250 Активный релизер 3000 Активный релизер 500 Активный релизер 5000 Активный релизер Фильмов (1000) Активный релизер Фильмов (300) Активный релизер Фильмов (600) Активный Форумчанин 1 Активный Форумчанин 2 Активный Форумчанин 3 Активный Форумчанин 4 Друг трекера Карма 1000 Карма 1500 Карма 3000 Карма 500 Меценат Ни дня без новостей Орденосец 1 степени Орденосец 2 степени Орденосец 3 степени Почетный орденосец Почетный репортер С Новым 2016 Годом! С Новым 2017 Годом! С Новым 2018 Годом! С Новым 2019 Годом! Супер Мега Контер Квейк ТОП-10

Пол: Мужской

Стаж: 3 года 11 месяцев

Наличие запрета:

Сообщений: 10847

Откуда: Free-Tor.com

Отдача: не определено

Загрузка: не определено

Нажми

Создавать темы 01-Апр-2019 11:51

[Цитировать]

Информация о фильме- Название: Частная война
Оригинальное название: A Private War
Год выхода: 2018
Жанр: Драма, военный, биография
Режиссер: Мэтт Хейнеман
В ролях: Розамунд Пайк, Том Холландер, Джейми Дорнан, Фэй Марсей, Стэнли Туччи, Никки Амука-Бёрд, Грег Уайз, Александра Моэн, Кори Джонсон, Аманда Дрю- -О фильме: Бесстрашная Мэри Колвин — один из самых знаменитых военных корреспондентов современности. Она одинаково комфортно чувствует себя, потягивая Martini с элитой Лондона, и в противостоянии диктаторам в разгар боевого конфликта. Она бесконечно много курит, пристрастна к алкоголю и не всегда разборчива в связях. Но настойчивое желание засвидетельствовать правду заставляет ее снова и снова оказываться на передовых военных конфликтов по всему миру. Она не раз смотрела смерти прямо в глаза. Её жизнь — торнадо, её разум — минное поле, её прекрасное тело изранено. Вместе с таким же борцом за справедливость, военным фотографом Полом Конроем, в осажденном городе Сирии они приступают к самому опасному заданию в их карьере.-Страна: Великобритания, США
Студия: Acacia Filmed Entertainment
Продолжительность: 01:50:35
Перевод: Профессиональный многоголосый | iTunes-Качество: BDRip 1080p
Видео: MPEG-4 AVC, 1920x816, 13 Mbit/s, 23.976 fps
Звук:
Аудио #01: 48 kHz, AC3, 5.1, 384 Kbps | iTunes | RUS |
Аудио #02: 48 kHz, AC3, 5.1, 640 Kbps | Оригинал | ENG |
Субтитры: Английские-

Скриншоты

--
-

MI

-General
Unique ID : 63145435127068587180087636641658222592 (0x2F815E51D6B0109BC1D84C117688B800)
Complete name : D:Video111A.Private.War.2018.BDRip.1080p.seleZen.mkv
Format : Matroska
Format version : Version 4
File size : 10.8 GiB
Duration : 1 h 50 min
Overall bit rate : 14.0 Mb/s
Movie name : A Private War 2018 from селезень
Encoded date : UTC 2019-03-29 18:24:25
Writing application : mkvmerge v32.0.0 ('Astral Progressions') 64-bit
Writing library : libebml v1.3.7 + libmatroska v1.5.0
Video
ID : 1
Format : AVC
Format/Info : Advanced Video Codec
Format profile : [email protected]
Format settings : CABAC / 5 Ref Frames
Format settings, CABAC : Yes
Format settings, ReFrames : 5 frames
Codec ID : V_MPEG4/ISO/AVC
Duration : 1 h 50 min
Bit rate : 13.0 Mb/s
Width : 1 920 pixels
Height : 816 pixels
Display aspect ratio : 2.35:1
Frame rate mode : Constant
Frame rate : 23.976 (24000/1001) FPS
Color space : YUV
Chroma subsampling : 4:2:0
Bit depth : 8 bits
Scan type : Progressive
Bits/(Pixel*Frame) : 0.345
Stream size : 10.0 GiB (93%)
Title : 剑心@HDSky
Writing library : x264 core 148 r2699+6+41 29a38aa Yuuki [[email protected]:2:0 X86_64][GCC 5.3.0]
Encoding settings : cabac=1 / ref=5 / deblock=1:-3:-3 / analyse=0x3:0x113 / me=umh / subme=11 / psy=1 / fade_compensate=0.00 / psy_rd=1.00:0.05 / mixed_ref=1 / me_range=32 / chroma_me=1 / trellis=2 / 8x8dct=1 / cqm=0 / deadzone=21,11 / fast_pskip=0 / chroma_qp_offset=-2 / threads=28 / lookahead_threads=4 / sliced_threads=0 / nr=0 / decimate=1 / interlaced=0 / bluray_compat=0 / constrained_intra=0 / fgo=0 / bframes=8 / b_pyramid=2 / b_adapt=2 / b_bias=0 / direct=3 / weightb=1 / open_gop=0 / weightp=2 / keyint=250 / keyint_min=23 / scenecut=40 / intra_refresh=0 / rc_lookahead=40 / rc=crf / mbtree=0 / crf=18.4000 / qcomp=0.60 / qpmin=0:0:0 / qpmax=69:69:69 / qpstep=4 / vbv_maxrate=50000 / vbv_bufsize=40000 / crf_max=0.0 / nal_hrd=none / filler=0 / ip_ratio=1.40 / pb_ratio=1.30 / aq=3:0.90
Language : English
Default : Yes
Forced : No
Audio #1
ID : 2
Format : AC-3
Format/Info : Audio Coding 3
Commercial name : Dolby Digital
Codec ID : A_AC3
Duration : 1 h 50 min
Bit rate mode : Constant
Bit rate : 384 kb/s
Channel(s) : 6 channels
Channel layout : L R C LFE Ls Rs
Sampling rate : 48.0 kHz
Frame rate : 31.250 FPS (1536 SPF)
Bit depth : 16 bits
Compression mode : Lossy
Stream size : 304 MiB (3%)
Title : iTunes
Language : Russian
Service kind : Complete Main
Default : Yes
Forced : No
Audio #2
ID : 3
Format : AC-3
Format/Info : Audio Coding 3
Commercial name : Dolby Digital
Codec ID : A_AC3
Duration : 1 h 50 min
Bit rate mode : Constant
Bit rate : 640 kb/s
Channel(s) : 6 channels
Channel layout : L R C LFE Ls Rs
Sampling rate : 48.0 kHz
Frame rate : 31.250 FPS (1536 SPF)
Bit depth : 16 bits
Compression mode : Lossy
Stream size : 506 MiB (5%)
Title : Original
Language : English
Service kind : Complete Main
Default : No
Forced : No
Text #1
ID : 4
Format : UTF-8
Codec ID : S_TEXT/UTF8
Codec ID/Info : UTF-8 Plain Text
Duration : 1 h 41 min
Bit rate : 44 b/s
Count of elements : 959
Stream size : 32.7 KiB (0%)
Title : Full
Language : English
Default : No
Forced : No
Text #2
ID : 5
Format : UTF-8
Codec ID : S_TEXT/UTF8
Codec ID/Info : UTF-8 Plain Text
Duration : 1 h 46 min
Bit rate : 51 b/s
Count of elements : 1309
Stream size : 40.1 KiB (0%)
Title : SDH
Language : English
Default : No
Forced : No
Menu
00:00:00.000 : en:00:00:00.000
00:05:16.149 : en:00:05:16.149
00:11:12.589 : en:00:11:12.589
00:17:24.669 : en:00:17:24.669
00:22:27.179 : en:00:22:27.179
00:30:37.961 : en:00:30:37.961
00:36:41.241 : en:00:36:41.241
00:39:07.011 : en:00:39:07.011
00:47:09.785 : en:00:47:09.785
00:51:01.183 : en:00:51:01.183
00:56:59.166 : en:00:56:59.166
01:02:05.180 : en:01:02:05.180
01:06:14.095 : en:01:06:14.095
01:11:58.356 : en:01:11:58.356
01:16:49.104 : en:01:16:49.104
01:21:28.759 : en:01:21:28.759
01:25:16.653 : en:01:25:16.653
01:30:06.776 : en:01:30:06.776
01:37:45.902 : en:01:37:45.902
01:42:54.335 : en:01:42:54.335-
-Релиз от: -
[free-tor.info].t20347.torrent 
Торрент: Зарегистрирован [ 2019-04-01 11:51 ] · EDEE446B598033137DB2278B47CABFD2DDC61DF2

Скачать .torrent

Скачать .torrent

109 KB

Статус: проверено
.torrent скачан: 5 раз
Размер: 10,81 GB
Правила
Похожие темы

[Профиль] [ЛС]
Показать сообщения:    
Ответить на тему

Текущее время: 16-Июл 04:14

Часовой пояс: UTC + 4



Вы не можете начинать темы
Вы не можете отвечать на сообщения
Вы не можете редактировать свои сообщения
Вы не можете удалять свои сообщения
Вы не можете голосовать в опросах
Вы не можете прикреплять файлы к сообщениям
Вы можете скачивать файлы
Анализ веб сайтов Яндекс.Метрика