Наше время / Nuestro tiempo (Карлос Рейгадас) [2018, драма, BDRip 1080p от селезень | iTunes]

Ответить на тему
Статистика раздачи [Обновить пиров]
Размер:  16,58 GB   |    Зарегистрирован:  3 месяца 15 дней   |    .torrent скачан:  6 раз
Сидов:  31  [  0 KB/s  ]   Личеров:  3  [  0 KB/s  ]   Подробная статистика пиров
 
   
 
 
Автор Сообщение

Skorp10n ®

Оффлайн

 Активный раздающий 1 Активный раздающий 2
 Активный релизер 1000 Активный релизер 1500 Активный релизер 2000 Активный релизер 250 Активный релизер 3000 Активный релизер 500 Активный релизер 5000 Активный релизер Фильмов (1000) Активный релизер Фильмов (300) Активный релизер Фильмов (600) Активный Форумчанин 1 Активный Форумчанин 2 Активный Форумчанин 3 Активный Форумчанин 4 Друг трекера Карма 1000 Карма 1500 Карма 3000 Карма 500 Меценат Ни дня без новостей Орденосец 1 степени Орденосец 2 степени Орденосец 3 степени Почетный орденосец Почетный репортер С Новым 2016 Годом! С Новым 2017 Годом! С Новым 2018 Годом! С Новым 2019 Годом! Супер Мега Контер Квейк ТОП-10

Пол: Мужской

Стаж: 3 года 11 месяцев

Наличие запрета:

Сообщений: 10847

Откуда: Free-Tor.com

Отдача: не определено

Загрузка: не определено

Нажми

Создавать темы 01-Апр-2019 12:01

[Цитировать]

Информация о фильме- Название: Наше время
Оригинальное название: Nuestro tiempo
Год выхода: 2018
Жанр: Драма
Режиссер: Карлос Рейгадас
В ролях: Карлос Рейгадас, Наталия Лопес, Фил Бургерс, Рут Рейгадас, Яго Мартинес, Мария Хагерман, Элеасар Рейгадас- -О фильме: Жизнь семьи известного поэта Хуана и его жены, преподавательницы английской литературы, Эстер, управляющих ранчо в мексиканской провинции, меняется после появления американца Фила, объездчика лошадей. Отношения Эстер и Хуана становятся играми интеллектуалов, и люди оказываются не менее одержимыми животными страстями, чем быки, которых они выращивают.-Страна: Мексика, Франция, Германия, Дания, Швеция
Студия: Bord Cadre Films, Detalle Films, Eficine
Продолжительность: 02:57:06
Перевод: Профессиональный многоголосый | iTunes-Качество: BDRip 1080p
Видео: MPEG-4 AVC, 1914x764, 11.5 Mbit/s, 24 fps
Звук:
Аудио #01: 48 kHz, AC3, 5.1, 384 Kbps | iTunes | RUS |
Аудио #02: 48 kHz, DTS, 5.1, 1510 Kbps | Оригинал | SPA |
Субтитры: Английские-

Скриншоты

--
-

MI

-General
Unique ID : 275487313741458028288210516124480250100 (0xCF40ED3B1EAF5EC48F4D36193F2320F4)
Complete name : D:Video111Nuestro.tiempo.AKA.Our.Time.2018.BDRip.1080p.seleZen.mkv
Format : Matroska
Format version : Version 4
File size : 16.6 GiB
Duration : 2 h 57 min
Overall bit rate : 13.4 Mb/s
Movie name : Nuestro tiempo AKA Our Time 2018 from селезень
Encoded date : UTC 2019-03-29 18:53:21
Writing application : mkvmerge v32.0.0 ('Astral Progressions') 64-bit
Writing library : libebml v1.3.7 + libmatroska v1.5.0
Video
ID : 1
Format : AVC
Format/Info : Advanced Video Codec
Format profile : [email protected]
Format settings : CABAC / 5 Ref Frames
Format settings, CABAC : Yes
Format settings, ReFrames : 5 frames
Codec ID : V_MPEG4/ISO/AVC
Duration : 2 h 57 min
Bit rate : 11.5 Mb/s
Width : 1 914 pixels
Height : 764 pixels
Display aspect ratio : 2.505
Frame rate mode : Constant
Frame rate : 24.000 FPS
Color space : YUV
Chroma subsampling : 4:2:0
Bit depth : 8 bits
Scan type : Progressive
Bits/(Pixel*Frame) : 0.328
Stream size : 14.2 GiB (86%)
Title : SaL
Writing library : x264 core 157 r2935 545de2f
Encoding settings : cabac=1 / ref=5 / deblock=1:-2:-2 / analyse=0x3:0x133 / me=umh / subme=10 / psy=1 / psy_rd=1.00:0.03 / mixed_ref=1 / me_range=32 / chroma_me=1 / trellis=2 / 8x8dct=1 / cqm=0 / deadzone=21,11 / fast_pskip=0 / chroma_qp_offset=-3 / threads=6 / lookahead_threads=1 / sliced_threads=0 / nr=0 / decimate=0 / interlaced=0 / bluray_compat=0 / constrained_intra=0 / bframes=8 / b_pyramid=2 / b_adapt=2 / b_bias=0 / direct=3 / weightb=1 / open_gop=0 / weightp=2 / keyint=250 / keyint_min=24 / scenecut=40 / intra_refresh=0 / rc_lookahead=150 / rc=crf / mbtree=0 / crf=14.7 / qcomp=0.77 / qpmin=0 / qpmax=69 / qpstep=4 / vbv_maxrate=62500 / vbv_bufsize=78125 / crf_max=0.0 / nal_hrd=none / filler=0 / ip_ratio=1.40 / pb_ratio=1.30 / aq=2:0.81
Language : Spanish
Default : Yes
Forced : No
Color range : Limited
Color primaries : BT.709
Matrix coefficients : BT.709
Audio #1
ID : 2
Format : AC-3
Format/Info : Audio Coding 3
Commercial name : Dolby Digital
Codec ID : A_AC3
Duration : 2 h 56 min
Bit rate mode : Constant
Bit rate : 384 kb/s
Channel(s) : 6 channels
Channel layout : L R C LFE Ls Rs
Sampling rate : 48.0 kHz
Frame rate : 31.250 FPS (1536 SPF)
Bit depth : 16 bits
Compression mode : Lossy
Stream size : 486 MiB (3%)
Title : iTunes
Language : Russian
Service kind : Complete Main
Default : Yes
Forced : Yes
Audio #2
ID : 3
Format : DTS
Format/Info : Digital Theater Systems
Codec ID : A_DTS
Duration : 2 h 57 min
Bit rate mode : Constant
Bit rate : 1 509 kb/s
Channel(s) : 6 channels
Channel layout : C L R Ls Rs LFE
Sampling rate : 48.0 kHz
Frame rate : 93.750 FPS (512 SPF)
Bit depth : 24 bits
Compression mode : Lossy
Stream size : 1.87 GiB (11%)
Title : Original
Language : Spanish
Default : No
Forced : No
Text
ID : 4
Format : UTF-8
Codec ID : S_TEXT/UTF8
Codec ID/Info : UTF-8 Plain Text
Duration : 2 h 51 min
Bit rate : 40 b/s
Count of elements : 1710
Stream size : 50.3 KiB (0%)
Language : English
Default : No
Forced : No
Menu
00:00:00.000 : en:Chapter 01
00:13:29.583 : en:Chapter 02
00:28:56.125 : en:Chapter 03
00:44:47.833 : en:Chapter 04
00:57:08.292 : en:Chapter 05
01:13:24.792 : en:Chapter 06
01:31:41.333 : en:Chapter 07
01:44:51.083 : en:Chapter 08
02:00:45.083 : en:Chapter 09
02:22:37.625 : en:Chapter 10
02:36:43.375 : en:Chapter 11
02:46:45.500 : en:Chapter 12-
-Релиз от: -
[free-tor.info].t20352.torrent 
Торрент: Зарегистрирован [ 2019-04-01 12:01 ] · 989632495DE45912F06914A071D12CC6EE2FAA3B

Скачать .torrent

Скачать .torrent

167 KB

Статус: проверено
.torrent скачан: 6 раз
Размер: 16,58 GB
Правила
Похожие темы

[Профиль] [ЛС]
Показать сообщения:    
Ответить на тему

Текущее время: 17-Июл 02:18

Часовой пояс: UTC + 4



Вы не можете начинать темы
Вы не можете отвечать на сообщения
Вы не можете редактировать свои сообщения
Вы не можете удалять свои сообщения
Вы не можете голосовать в опросах
Вы не можете прикреплять файлы к сообщениям
Вы можете скачивать файлы
Анализ веб сайтов Яндекс.Метрика