Белый парень Рик / White Boy Rick (Ян Деманж) [2018, драма, криминал, реальные события, BDRip 1080p от селезень | D, P | Лицензия]

Ответить на тему
Статистика раздачи [Обновить пиров]
Размер:  13,41 GB   |    Зарегистрирован:  2 месяца 11 дней   |    .torrent скачан:  14 раз
Сидов:  68  [  0 KB/s  ]   Личеров:  12  [  0 KB/s  ]   Подробная статистика пиров
 
   
 
 
Автор Сообщение

Skorp10n ®

Оффлайн

 Активный раздающий 1 Активный раздающий 2
 Активный релизер 1000 Активный релизер 1500 Активный релизер 2000 Активный релизер 250 Активный релизер 3000 Активный релизер 500 Активный релизер 5000 Активный релизер Фильмов (1000) Активный релизер Фильмов (300) Активный релизер Фильмов (600) Активный Форумчанин 1 Активный Форумчанин 2 Активный Форумчанин 3 Активный Форумчанин 4 Друг трекера Карма 1000 Карма 1500 Карма 3000 Карма 500 Меценат Ни дня без новостей Орденосец 1 степени Орденосец 2 степени Орденосец 3 степени Почетный орденосец Почетный репортер С Новым 2016 Годом! С Новым 2017 Годом! С Новым 2018 Годом! С Новым 2019 Годом! Супер Мега Контер Квейк ТОП-10

Пол: Мужской

Стаж: 3 года 10 месяцев

Наличие запрета:

Сообщений: 10765

Откуда: Free-Tor.com

Отдача: не определено

Загрузка: не определено

Нажми

Создавать темы 08-Апр-2019 11:57

[Цитировать]

Информация о фильме- Название: Белый парень Рик
Оригинальное название: White Boy Rick
Год выхода: 2018
Жанр: Драма, криминал, реальные события
Режиссер: Ян Деманж
В ролях: Мэттью МакКонахи, Ричи Мерритт, Бел Паули, Дженнифер Джейсон Ли, Брайан Тайри Генри, Рори Кокрейн, АрДжей Сайлер, Джонатан Мэйджерс, Эдди Марсан, Тейлор Пейдж- -О фильме: История Ричарда Верши-младшего, который в 14 лет стал самым молодым осведомителем ФБР, чтобы спасти своего отца от тюрьмы.-Страна: США
Студия: LBI Productions, Protozoa Pictures, Studio 8
Продолжительность: 01:51:06
Перевод(ы):
#1: Дублированный | Лицензия BD EUR

#2: Профессиональный многоголосый | HDRezka Studio-Качество: BDRip 1080p
Видео: MPEG-4 AVC, 1920x804, 15.8 Mbit/s, 23.976 fps
Звук:
Аудио #01: 48 kHz, AC3, 5.1, 640 Kbps | Дублированный | RUS |
Аудио #02: 48 kHz, AC3, 2.0, 192 Kbps | Профессиональный многоголосый | RUS |
Аудио #03: 48 kHz, AC3, 5.1, 640 Kbps | Оригинал | ENG |
Субтитры: Русские (Full), английские-

Скриншоты

--
-

MI

-General
Unique ID : 22826426803441096677461329088832250232 (0x112C35BB60C3417BDE7FE18268DAA178)
Complete name : D:Video111White.Boy.Rick.2018.BDRip.1080p.seleZen.mkv
Format : Matroska
Format version : Version 4
File size : 13.4 GiB
Duration : 1 h 51 min
Overall bit rate : 17.3 Mb/s
Movie name : White Boy Rick 2018 from селезень
Encoded date : UTC 2019-04-05 04:58:48
Writing application : mkvmerge v32.0.0 ('Astral Progressions') 64-bit
Writing library : libebml v1.3.7 + libmatroska v1.5.0
Video
ID : 1
Format : AVC
Format/Info : Advanced Video Codec
Format profile : [email protected]
Format settings : CABAC / 5 Ref Frames
Format settings, CABAC : Yes
Format settings, ReFrames : 5 frames
Codec ID : V_MPEG4/ISO/AVC
Duration : 1 h 51 min
Bit rate : 15.8 Mb/s
Width : 1 920 pixels
Height : 804 pixels
Display aspect ratio : 2.40:1
Frame rate mode : Constant
Frame rate : 23.976 (24000/1001) FPS
Color space : YUV
Chroma subsampling : 4:2:0
Bit depth : 8 bits
Scan type : Progressive
Bits/(Pixel*Frame) : 0.427
Stream size : 12.3 GiB (91%)
Title : SA89
Writing library : x264 core 152 r2851 ba24899
Encoding settings : cabac=1 / ref=5 / deblock=1:-3:-3 / analyse=0x3:0x133 / me=umh / subme=10 / psy=1 / psy_rd=1.00:0.00 / mixed_ref=1 / me_range=24 / chroma_me=1 / trellis=2 / 8x8dct=1 / cqm=0 / deadzone=21,11 / fast_pskip=1 / chroma_qp_offset=-2 / threads=6 / lookahead_threads=1 / sliced_threads=0 / nr=0 / decimate=1 / interlaced=0 / bluray_compat=0 / constrained_intra=0 / bframes=8 / b_pyramid=2 / b_adapt=2 / b_bias=0 / direct=3 / weightb=1 / open_gop=0 / weightp=2 / keyint=250 / keyint_min=25 / scenecut=40 / intra_refresh=0 / rc_lookahead=60 / rc=crf / mbtree=0 / crf=17.0 / qcomp=0.60 / qpmin=0 / qpmax=69 / qpstep=4 / vbv_maxrate=62500 / vbv_bufsize=78125 / crf_max=0.0 / nal_hrd=none / filler=0 / ip_ratio=1.40 / pb_ratio=1.30 / aq=3:0.80
Language : English
Default : Yes
Forced : No
Audio #1
ID : 2
Format : AC-3
Format/Info : Audio Coding 3
Commercial name : Dolby Digital
Codec ID : A_AC3
Duration : 1 h 51 min
Bit rate mode : Constant
Bit rate : 640 kb/s
Channel(s) : 6 channels
Channel layout : L R C LFE Ls Rs
Sampling rate : 48.0 kHz
Frame rate : 31.250 FPS (1536 SPF)
Bit depth : 16 bits
Compression mode : Lossy
Stream size : 509 MiB (4%)
Title : Dub [License BD EUR]
Language : Russian
Service kind : Complete Main
Default : Yes
Forced : Yes
Audio #2
ID : 3
Format : AC-3
Format/Info : Audio Coding 3
Commercial name : Dolby Digital
Codec ID : A_AC3
Duration : 1 h 51 min
Bit rate mode : Constant
Bit rate : 192 kb/s
Channel(s) : 2 channels
Channel layout : L R
Sampling rate : 48.0 kHz
Frame rate : 31.250 FPS (1536 SPF)
Bit depth : 16 bits
Compression mode : Lossy
Stream size : 153 MiB (1%)
Title : MVO [HDRezka Studio]
Language : Russian
Service kind : Complete Main
Default : No
Forced : No
Audio #3
ID : 4
Format : AC-3
Format/Info : Audio Coding 3
Commercial name : Dolby Digital
Codec ID : A_AC3
Duration : 1 h 51 min
Bit rate mode : Constant
Bit rate : 640 kb/s
Channel(s) : 6 channels
Channel layout : L R C LFE Ls Rs
Sampling rate : 48.0 kHz
Frame rate : 31.250 FPS (1536 SPF)
Bit depth : 16 bits
Compression mode : Lossy
Stream size : 509 MiB (4%)
Title : Original
Language : English
Service kind : Complete Main
Default : No
Forced : No
Text #1
ID : 5
Format : UTF-8
Codec ID : S_TEXT/UTF8
Codec ID/Info : UTF-8 Plain Text
Duration : 1 h 43 min
Bit rate : 113 b/s
Count of elements : 1478
Stream size : 86.3 KiB (0%)
Title : Full
Language : Russian
Default : No
Forced : No
Text #2
ID : 6
Format : UTF-8
Codec ID : S_TEXT/UTF8
Codec ID/Info : UTF-8 Plain Text
Duration : 1 h 44 min
Bit rate : 68 b/s
Count of elements : 1550
Stream size : 51.9 KiB (0%)
Title : Full
Language : English
Default : No
Forced : No
Text #3
ID : 7
Format : UTF-8
Codec ID : S_TEXT/UTF8
Codec ID/Info : UTF-8 Plain Text
Duration : 1 h 44 min
Bit rate : 98 b/s
Count of elements : 1758
Stream size : 75.5 KiB (0%)
Title : SDH
Language : English
Default : No
Forced : No
Menu
00:00:00.000 : :Chapter 01
00:02:44.581 : :Chapter 02
00:04:14.045 : :Chapter 03
00:05:18.151 : :Chapter 04
00:06:56.625 : :Chapter 05
00:08:22.419 : :Chapter 06
00:09:53.301 : :Chapter 07
00:11:29.439 : :Chapter 08
00:12:59.237 : :Chapter 09
00:14:28.493 : :Chapter 10
00:16:05.006 : :Chapter 11
00:17:37.598 : :Chapter 12
00:19:08.064 : :Chapter 13
00:20:40.156 : :Chapter 14
00:22:12.081 : :Chapter 15
00:24:12.660 : :Chapter 16
00:26:16.700 : :Chapter 17
00:28:10.564 : :Chapter 18
00:30:15.313 : :Chapter 19
00:32:13.014 : :Chapter 20
00:34:06.670 : :Chapter 21
00:35:45.477 : :Chapter 22
00:37:15.608 : :Chapter 23
00:38:44.447 : :Chapter 24
00:40:16.289 : :Chapter 25
00:41:47.004 : :Chapter 26
00:43:16.719 : :Chapter 27
00:44:51.522 : :Chapter 28
00:46:22.446 : :Chapter 29
00:47:53.370 : :Chapter 30
00:49:25.504 : :Chapter 31
00:50:55.678 : :Chapter 32
00:52:27.603 : :Chapter 33
00:55:29.826 : :Chapter 34
00:57:01.460 : :Chapter 35
00:58:33.260 : :Chapter 36
01:00:04.142 : :Chapter 37
01:01:36.902 : :Chapter 38
01:03:07.701 : :Chapter 39
01:06:07.505 : :Chapter 40
01:07:38.388 : :Chapter 41
01:09:36.381 : :Chapter 42
01:11:36.042 : :Chapter 43
01:13:35.828 : :Chapter 44
01:15:36.532 : :Chapter 45
01:16:45.059 : :Chapter 46
01:18:46.055 : :Chapter 47
01:20:37.833 : :Chapter 48
01:22:37.411 : :Chapter 49
01:24:38.907 : :Chapter 50
01:26:40.821 : :Chapter 51
01:28:41.816 : :Chapter 52
01:30:43.021 : :Chapter 53
01:32:44.934 : :Chapter 54
01:34:46.139 : :Chapter 55
01:36:46.259 : :Chapter 56
01:38:49.549 : :Chapter 57
01:40:50.294 : :Chapter 58
01:42:51.916 : :Chapter 59
01:44:33.309 : :Chapter 60-
-Релиз от: -
[free-tor.info].t20453.torrent 
Торрент: Зарегистрирован [ 2019-04-08 11:57 ] · 8F001807AB86FC70C411C3083BCCE62330E3EF18

Скачать .torrent

Скачать .torrent

135 KB

Статус: проверено
.torrent скачан: 14 раз
Размер: 13,41 GB
Правила
Похожие темы

[Профиль] [ЛС]
Показать сообщения:    
Ответить на тему

Текущее время: 20-Июн 01:13

Часовой пояс: UTC + 4



Вы не можете начинать темы
Вы не можете отвечать на сообщения
Вы не можете редактировать свои сообщения
Вы не можете удалять свои сообщения
Вы не можете голосовать в опросах
Вы не можете прикреплять файлы к сообщениям
Вы можете скачивать файлы
Анализ веб сайтов Яндекс.Метрика