Шутки в сторону 2: Миссия в Майами / Le flic de Belleville (Рашид Бушареб) [2018, комедия, BDRip 1080p от селезень | iTunes]

Ответить на тему
Статистика раздачи [Обновить пиров]
Размер:  10,99 GB   |    Зарегистрирован:  3 месяца 7 дней   |    .torrent скачан:  12 раз
Сидов:  1484  [  0 KB/s  ]   Личеров:  95  [  0 KB/s  ]   Подробная статистика пиров
 
   
 
 
Автор Сообщение

Skorp10n ®

Оффлайн

 Активный раздающий 1 Активный раздающий 2
 Активный релизер 1000 Активный релизер 1500 Активный релизер 2000 Активный релизер 250 Активный релизер 3000 Активный релизер 500 Активный релизер 5000 Активный релизер Фильмов (1000) Активный релизер Фильмов (300) Активный релизер Фильмов (600) Активный Форумчанин 1 Активный Форумчанин 2 Активный Форумчанин 3 Активный Форумчанин 4 Друг трекера Карма 1000 Карма 1500 Карма 3000 Карма 500 Меценат Ни дня без новостей Орденосец 1 степени Орденосец 2 степени Орденосец 3 степени Почетный орденосец Почетный репортер С Новым 2016 Годом! С Новым 2017 Годом! С Новым 2018 Годом! С Новым 2019 Годом! Супер Мега Контер Квейк ТОП-10

Пол: Мужской

Стаж: 3 года 11 месяцев

Наличие запрета:

Сообщений: 10847

Откуда: Free-Tor.com

Отдача: не определено

Загрузка: не определено

Нажми

Создавать темы 08-Апр-2019 12:15

[Цитировать]

Информация о фильме- Название: Шутки в сторону 2: Миссия в Майами
Оригинальное название: Le flic de Belleville
Год выхода: 2018
Жанр: Комедия
Режиссер: Рашид Бушареб
В ролях: Омар Си, Луис Гусман, Биюна, Дьем Нгуйен, Эрик Эбони, Исака Савадого, Маймуна Гуйе, Жюли Ферье, Франк Гастамбид, Себастьен Вандерберг- -О фильме: Безбашенный коп-раздолбай приезжает в рай на Земле — Майами, где знакомится с еще более чокнутым местным копом. Эти двое нарушат все возможные законы и устроят настоящий беспредел, чтобы раскрыть глобальную преступную сеть, опутавшую с виду спокойный и респектабельный Майами.-Страна: Франция
Студия: Ciné, Cofinova 14, Davis-Films, TF1 Films Production
Продолжительность: 01:51:18
Перевод: Дублированный | iTunes-Качество: BDRip 1080p
Видео: MPEG-4 AVC, 1920x804, 13.1 Mbit/s, 23.976 fps
Звук:
Аудио #01: 48 kHz, AC3, 5.1, 384 Kbps | iTunes | RUS |
Аудио #02: 48 kHz, AC3, 5.1, 640 Kbps | Оригинал | FRE |
Субтитры: Французские-

Скриншоты

--
-

MI

-General
Unique ID : 133273834579988507221132537041884862789 (0x64439B5C9FEDC6747F5B7AACC154D945)
Complete name : F:Video1Le.Flic.De.Belleville.2018.BDRip.1080p.seleZen.mkv
Format : Matroska
Format version : Version 4
File size : 11.0 GiB
Duration : 1 h 51 min
Overall bit rate : 14.1 Mb/s
Movie name : Le Flic De Belleville 2018 from селезень
Encoded date : UTC 2019-04-04 20:25:09
Writing application : mkvmerge v32.0.0 ('Astral Progressions') 64-bit
Writing library : libebml v1.3.7 + libmatroska v1.5.0
Video
ID : 1
Format : AVC
Format/Info : Advanced Video Codec
Format profile : [email protected]
Format settings : CABAC / 5 Ref Frames
Format settings, CABAC : Yes
Format settings, ReFrames : 5 frames
Codec ID : V_MPEG4/ISO/AVC
Duration : 1 h 51 min
Bit rate : 13.1 Mb/s
Width : 1 920 pixels
Height : 804 pixels
Display aspect ratio : 2.40:1
Frame rate mode : Constant
Frame rate : 23.976 (24000/1001) FPS
Color space : YUV
Chroma subsampling : 4:2:0
Bit depth : 8 bits
Scan type : Progressive
Bits/(Pixel*Frame) : 0.355
Stream size : 10.2 GiB (93%)
Title : seleZen
Writing library : x264 core 148 r2705kMod 3f5ed56
Encoding settings : cabac=1 / ref=5 / deblock=1:-2:-2 / analyse=0x3:0x133 / me=umh / subme=10 / psy=1 / fade_compensate=0.00 / psy_rd=1.20:0.05 / mixed_ref=1 / me_range=32 / chroma_me=1 / trellis=2 / 8x8dct=1 / cqm=0 / deadzone=21,11 / fast_pskip=0 / chroma_qp_offset=-3 / threads=12 / lookahead_threads=2 / sliced_threads=0 / nr=0 / decimate=0 / interlaced=0 / bluray_compat=0 / constrained_intra=0 / fgo=0 / bframes=8 / b_pyramid=2 / b_adapt=2 / b_bias=0 / direct=3 / weightb=1 / open_gop=0 / weightp=2 / keyint=240 / keyint_min=23 / scenecut=40 / intra_refresh=0 / rc_lookahead=50 / rc=2pass / mbtree=0 / bitrate=13126 / ratetol=1.0 / qcomp=0.60 / qpmin=0 / qpmax=51 / qpstep=4 / cplxblur=20.0 / qblur=0.5 / vbv_maxrate=50000 / vbv_bufsize=62500 / nal_hrd=none / filler=0 / ip_ratio=1.40 / pb_ratio=1.30 / aq=3:0.80
Language : English
Default : Yes
Forced : No
Audio #1
ID : 2
Format : AC-3
Format/Info : Audio Coding 3
Commercial name : Dolby Digital
Codec ID : A_AC3
Duration : 1 h 51 min
Bit rate mode : Constant
Bit rate : 384 kb/s
Channel(s) : 6 channels
Channel layout : L R C LFE Ls Rs
Sampling rate : 48.0 kHz
Frame rate : 31.250 FPS (1536 SPF)
Bit depth : 16 bits
Compression mode : Lossy
Stream size : 306 MiB (3%)
Title : iTunes
Language : Russian
Service kind : Complete Main
Default : Yes
Forced : Yes
Audio #2
ID : 3
Format : AC-3
Format/Info : Audio Coding 3
Commercial name : Dolby Digital
Codec ID : A_AC3
Duration : 1 h 51 min
Bit rate mode : Constant
Bit rate : 640 kb/s
Channel(s) : 6 channels
Channel layout : L R C LFE Ls Rs
Sampling rate : 48.0 kHz
Frame rate : 31.250 FPS (1536 SPF)
Bit depth : 16 bits
Compression mode : Lossy
Stream size : 510 MiB (5%)
Title : Original
Language : French
Service kind : Complete Main
Default : No
Forced : No
Text
ID : 4
Format : UTF-8
Codec ID : S_TEXT/UTF8
Codec ID/Info : UTF-8 Plain Text
Duration : 1 h 43 min
Bit rate : 26 b/s
Count of elements : 785
Stream size : 20.2 KiB (0%)
Language : French
Default : No
Forced : No
Menu
00:00:00.000 : fr:(01)00:00:00:000
00:08:32.178 : fr:(02)00:08:32:178
00:18:40.994 : fr:(03)00:18:40:994
00:29:11.124 : fr:(04)00:29:11:124
00:40:28.175 : fr:(05)00:40:28:175
00:49:32.010 : fr:(06)00:49:32:010
00:59:33.444 : fr:(07)00:59:33:444
01:09:57.109 : fr:(08)01:09:57:109
01:19:50.494 : fr:(09)01:19:50:494
01:30:13.741 : fr:(10)01:30:13:741
01:38:14.388 : fr:(11)01:38:14:388
01:48:23.163 : fr:(12)01:48:23:163-
-Релиз от: -
[free-tor.info].t20461.torrent 
Торрент: Зарегистрирован [ 2019-04-08 12:15 ] · 067D2182931907A72B49149CAE3404672DA6DCD0

Скачать .torrent

Скачать .torrent

111 KB

Статус: проверено
.torrent скачан: 12 раз
Размер: 10,99 GB
Правила
Похожие темы

[Профиль] [ЛС]
Показать сообщения:    
Ответить на тему

Текущее время: 16-Июл 04:28

Часовой пояс: UTC + 4



Вы не можете начинать темы
Вы не можете отвечать на сообщения
Вы не можете редактировать свои сообщения
Вы не можете удалять свои сообщения
Вы не можете голосовать в опросах
Вы не можете прикреплять файлы к сообщениям
Вы можете скачивать файлы
Анализ веб сайтов Яндекс.Метрика