Ван Гоги (Сергей Ливнев) [2018, драма, WEB-DL 1080p | iTunes]

Ответить на тему
Статистика раздачи [Обновить пиров]
Размер:  3,85 GB   |    Зарегистрирован:  2 месяца 11 дней   |    .torrent скачан:  6 раз
Сидов:  675  [  0 KB/s  ]   Личеров:  24  [  0 KB/s  ]   Подробная статистика пиров
 
   
 
 
Автор Сообщение

Skorp10n ®

Оффлайн

 Активный раздающий 1 Активный раздающий 2
 Активный релизер 1000 Активный релизер 1500 Активный релизер 2000 Активный релизер 250 Активный релизер 3000 Активный релизер 500 Активный релизер 5000 Активный релизер Фильмов (1000) Активный релизер Фильмов (300) Активный релизер Фильмов (600) Активный Форумчанин 1 Активный Форумчанин 2 Активный Форумчанин 3 Активный Форумчанин 4 Друг трекера Карма 1000 Карма 1500 Карма 3000 Карма 500 Меценат Ни дня без новостей Орденосец 1 степени Орденосец 2 степени Орденосец 3 степени Почетный орденосец Почетный репортер С Новым 2016 Годом! С Новым 2017 Годом! С Новым 2018 Годом! С Новым 2019 Годом! Супер Мега Контер Квейк ТОП-10

Пол: Мужской

Стаж: 3 года 10 месяцев

Наличие запрета:

Сообщений: 10765

Откуда: Free-Tor.com

Отдача: не определено

Загрузка: не определено

Нажми

Создавать темы 08-Апр-2019 12:46

[Цитировать]

Информация о фильме- Название: Ван Гоги
Год выпуска: 2018
Жанр: Драма
Режиссер: Сергей Ливнев
В ролях: Алексей Серебряков, Даниэль Ольбрыхский, Елена Коренева, Полина Агуреева, Наталья Негода, Александр Сирин, Светлана Немоляева, Ольга Остроумова, Ёла Санько, Евгений Ткачук-О фильме: Отец — прославленный дирижер. Сын — талантливый, но неизвестный художник. Их отношения давно превратились в любовь-ненависть, в которой больше ненависти, чем любви. Они живут на разных концах света и стараются не видеться без необходимости. Когда такая необходимость неожиданно возникает, самые близкие и одновременно далекие люди должны будут пройти непростой путь примирения.--Выпущено: Россия, Леополис
Продолжительность: 01:38:34
Язык: Русский | iTunes-Файл-Качество: WEB-DL 1080p
Контейнер: MKV
Видео: MPEG-4 AVC, 5092 Кбит/с, 1920x1080
Аудио: AC3, 6 ch, 384 Кбит/с
Субтитры: Русские (hardsub - на иностранную речь)-Релиз от: -

Скриншоты

--
-

MediaInfo

-General
Unique ID : 239201276981506388069403129648098065505 (0xB3F47D7E3C04E48E930BC5053BC43C61)
Complete name : Van gogi.2019.WEB-DL.1080p.ELEKTRI4KA.UNIONGANG.mkv
Format : Matroska
Format version : Version 2
File size : 3.85 GiB
Duration : 1 h 38 min
Overall bit rate : 5 587 kb/s
Movie name : Van gogi.2019.ELEKTRI4KA.UNIONGANG
Encoded date : UTC 2019-04-06 18:41:27
Writing application : mkvmerge v7.8.0 ('River Man') 32bit built on Apr 3 2015 12:11:22
Writing library : libebml v1.3.1 + libmatroska v1.4.2
Video
ID : 2
Format : AVC
Format/Info : Advanced Video Codec
Format profile : [email protected]
Format settings, CABAC : Yes
Format settings, RefFrames : 4 frames
Codec ID : V_MPEG4/ISO/AVC
Duration : 1 h 38 min
Bit rate : 5 092 kb/s
Width : 1 920 pixels
Height : 1 080 pixels
Display aspect ratio : 16:9
Frame rate mode : Constant
Frame rate : 25.000 FPS
Color space : YUV
Chroma subsampling : 4:2:0
Bit depth : 8 bits
Scan type : Progressive
Bits/(Pixel*Frame) : 0.098
Stream size : 3.51 GiB (91%)
Language : English
Default : Yes
Forced : No
Color range : Limited
Color primaries : BT.709
Transfer characteristics : BT.709
Matrix coefficients : BT.709
Audio
ID : 1
Format : AC-3
Format/Info : Audio Coding 3
Format settings, Endianness : Big
Codec ID : A_AC3
Duration : 1 h 38 min
Bit rate mode : Constant
Bit rate : 384 kb/s
Channel(s) : 6 channels
Channel positions : Front: L C R, Side: L R, LFE
Sampling rate : 48.0 kHz
Frame rate : 31.250 FPS (1536 SPF)
Bit depth : 16 bits
Compression mode : Lossy
Stream size : 271 MiB (7%)
Language : Russian
Service kind : Complete Main
Default : Yes
Forced : No
Menu
00:00:00.000 : en:Глава 1
00:08:00.800 : en:Глава 2
00:16:21.200 : en:Глава 3
00:25:05.599 : en:Глава 4
00:34:07.799 : en:Глава 5
00:43:04.879 : en:Глава 6
00:51:35.918 : en:Глава 7
00:59:52.638 : en:Глава 8
01:08:21.157 : en:Глава 9
01:16:28.316 : en:Глава 10
01:25:07.515 : en:Глава 11-
-
[free-tor.info].t20476.torrent 
Торрент: Зарегистрирован [ 2019-04-08 12:46 ] · 760B34E14B66AE204153842A066846F5D0BEA47E

Скачать .torrent

Скачать .torrent

20 KB

Статус: проверено
.torrent скачан: 6 раз
Размер: 3,85 GB
Правила
Похожие темы

[Профиль] [ЛС]
Показать сообщения:    
Ответить на тему

Текущее время: 20-Июн 03:39

Часовой пояс: UTC + 4



Вы не можете начинать темы
Вы не можете отвечать на сообщения
Вы не можете редактировать свои сообщения
Вы не можете удалять свои сообщения
Вы не можете голосовать в опросах
Вы не можете прикреплять файлы к сообщениям
Вы можете скачивать файлы
Анализ веб сайтов Яндекс.Метрика