Вокс люкс / Vox Lux (Брэйди Корбет) [2018, драма, музыка, BDRip 1080p от селезень | iTunes]

Ответить на тему
Статистика раздачи [Обновить пиров]
Размер:  10,95 GB   |    Зарегистрирован:  3 месяца 8 дней   |    .torrent скачан:  13 раз
Сидов:  92  [  0 KB/s  ]   Личеров:  10  [  0 KB/s  ]   Подробная статистика пиров
 
   
 
 
Автор Сообщение

Skorp10n ®

Оффлайн

 Активный раздающий 1 Активный раздающий 2
 Активный релизер 1000 Активный релизер 1500 Активный релизер 2000 Активный релизер 250 Активный релизер 3000 Активный релизер 500 Активный релизер 5000 Активный релизер Фильмов (1000) Активный релизер Фильмов (300) Активный релизер Фильмов (600) Активный Форумчанин 1 Активный Форумчанин 2 Активный Форумчанин 3 Активный Форумчанин 4 Друг трекера Карма 1000 Карма 1500 Карма 3000 Карма 500 Меценат Ни дня без новостей Орденосец 1 степени Орденосец 2 степени Орденосец 3 степени Почетный орденосец Почетный репортер С Новым 2016 Годом! С Новым 2017 Годом! С Новым 2018 Годом! С Новым 2019 Годом! Супер Мега Контер Квейк ТОП-10

Пол: Мужской

Стаж: 3 года 11 месяцев

Наличие запрета:

Сообщений: 10847

Откуда: Free-Tor.com

Отдача: не определено

Загрузка: не определено

Нажми

Создавать темы 08-Апр-2019 12:55

[Цитировать]

Информация о фильме- Название: Вокс люкс
Оригинальное название: Vox Lux
Год выхода: 2018
Жанр: Драма, музыка
Режиссер: Брэйди Корбет
В ролях: Натали Портман, Уиллем Дефо, Джуд Лоу, Кристофер Эбботт, Дженнифер Или, Рэффи Кэссиди, Стэйси Мартин, Майкл Нисон, Мария Диззия, Эрик Кинг- -О фильме: В 1999 году отличница Селеста чудом выжила, когда её одноклассник устроил в школе стрельбу. Под впечатлением от несчастья она написала песню — и проснулась знаменитой. Стремительный взлет, срежиссированный опытным менеджером и подпитанный жадным интересом публики к трагедии, превратил её в мировую суперзвезду. Спустя 20 лет карьера Селесты пошла на спад, а скандальный эпизод на пресс-конференции грозит и вовсе ее уничтожить. Теперь упрямой звезде предстоит разобраться со своими личными и семейными проблемами и при этом не сойти с ума, пытаясь сохранить хрупкую грань между славой и реальной жизнью.-Страна: США
Студия: Andrew Lauren Productions (ALP)
Продолжительность: 01:54:27
Перевод: Дублированный | iTunes-Качество: BDRip 1080p
Видео: MPEG-4 AVC, 1800x1080, 11.8 Mbit/s, 23.976 fps
Звук:
Аудио #01: 48 kHz, AC3, 5.1, 384 Kbps | iTunes | RUS |
Аудио #02: 48 kHz, DTS, 5.1, 1510 Kbps | Оригинал | ENG |
Субтитры: Русские (2 x Full), английские-

Скриншоты

--
-

MI

-General
Unique ID : 195841806010127104720495092894482681131 (0x9355C285E88427C1CC7F56D9F3B5CD2B)
Complete name : D:Video111Vox.Lux.2018.BDRip.1080p.seleZen.mkv
Format : Matroska
Format version : Version 4
File size : 10.9 GiB
Duration : 1 h 54 min
Overall bit rate : 13.7 Mb/s
Movie name : Vox Lux 2018 from селезень
Encoded date : UTC 2019-04-08 02:53:28
Writing application : mkvmerge v32.0.0 ('Astral Progressions') 64-bit
Writing library : libebml v1.3.7 + libmatroska v1.5.0
Video
ID : 1
Format : AVC
Format/Info : Advanced Video Codec
Format profile : [email protected]
Format settings : CABAC / 4 Ref Frames
Format settings, CABAC : Yes
Format settings, ReFrames : 4 frames
Codec ID : V_MPEG4/ISO/AVC
Duration : 1 h 54 min
Bit rate : 11.8 Mb/s
Width : 1 800 pixels
Height : 1 080 pixels
Display aspect ratio : 5:3
Frame rate mode : Constant
Frame rate : 23.976 (24000/1001) FPS
Color space : YUV
Chroma subsampling : 4:2:0
Bit depth : 8 bits
Scan type : Progressive
Bits/(Pixel*Frame) : 0.253
Stream size : 9.43 GiB (86%)
Title : CHD
Writing library : x264 core 155 r2867+74 66b5600 t_mod_Custom_2 [[email protected] X86_64]
Encoding settings : cabac=1 / ref=4 / deblock=1:-3:-3 / analyse=0x3:0x113 / me=umh / subme=10 / psy=1 / fade_compensate=0.00 / psy_rd=0.90:0.10 / mixed_ref=1 / me_range=48 / chroma_me=1 / trellis=2 / 8x8dct=1 / cqm=0 / deadzone=21,11 / fast_pskip=0 / chroma_qp_offset=-2 / threads=18 / lookahead_threads=3 / sliced_threads=0 / nr=0 / decimate=1 / interlaced=0 / bluray_compat=0 / constrained_intra=0 / fgo=0 / bframes=8 / b_pyramid=2 / b_adapt=2 / b_bias=0 / direct=3 / weightb=1 / open_gop=0 / weightp=2 / keyint=250 / keyint_min=23 / scenecut=40 / intra_refresh=0 / rc_lookahead=40 / rc=crf / mbtree=0 / crf=21.0000 / qcomp=0.70 / qpmin=0:0:0 / qpmax=69:69:69 / qpstep=4 / vbv_maxrate=35000 / vbv_bufsize=35000 / crf_max=0.0 / nal_hrd=none / filler=0 / ip_ratio=1.40 / pb_ratio=1.30 / aq=3:0.90 / aq-sensitivity=10.00 / aq-factor=1.00:1.00:1.00 / aq2=0 / aq3=2:[0.50:0.50]:[0.50:0.50]:[0.50:0.50]:[0.50:0.50] / aq3-sensitivity=10.00 / aq3-factor=[1.00:1.00]:[1.00:1.00]:[1.00:1.00] / aq3-boundary=192:64:24
Language : English
Default : Yes
Forced : No
Color range : Limited
Matrix coefficients : BT.709
Audio #1
ID : 2
Format : AC-3
Format/Info : Audio Coding 3
Commercial name : Dolby Digital
Codec ID : A_AC3
Duration : 1 h 54 min
Bit rate mode : Constant
Bit rate : 384 kb/s
Channel(s) : 6 channels
Channel layout : L R C LFE Ls Rs
Sampling rate : 48.0 kHz
Frame rate : 31.250 FPS (1536 SPF)
Bit depth : 16 bits
Compression mode : Lossy
Stream size : 314 MiB (3%)
Title : iTunes
Language : Russian
Service kind : Complete Main
Default : Yes
Forced : Yes
Audio #2
ID : 3
Format : DTS
Format/Info : Digital Theater Systems
Codec ID : A_DTS
Duration : 1 h 54 min
Bit rate mode : Constant
Bit rate : 1 509 kb/s
Channel(s) : 6 channels
Channel layout : C L R Ls Rs LFE
Sampling rate : 48.0 kHz
Frame rate : 93.750 FPS (512 SPF)
Bit depth : 24 bits
Compression mode : Lossy
Stream size : 1.21 GiB (11%)
Title : Original
Language : English
Default : No
Forced : No
Text #1
ID : 4
Format : UTF-8
Codec ID : S_TEXT/UTF8
Codec ID/Info : UTF-8 Plain Text
Duration : 1 h 48 min
Bit rate : 115 b/s
Count of elements : 1640
Stream size : 91.6 KiB (0%)
Title : Full [Dark_Alice]
Language : Russian
Default : No
Forced : No
Text #2
ID : 5
Format : UTF-8
Codec ID : S_TEXT/UTF8
Codec ID/Info : UTF-8 Plain Text
Duration : 1 h 49 min
Bit rate : 117 b/s
Count of elements : 1629
Stream size : 94.2 KiB (0%)
Title : Full [PhysKids]
Language : Russian
Default : No
Forced : No
Text #3
ID : 6
Format : UTF-8
Codec ID : S_TEXT/UTF8
Codec ID/Info : UTF-8 Plain Text
Duration : 1 h 48 min
Bit rate : 72 b/s
Count of elements : 1609
Stream size : 57.4 KiB (0%)
Title : Full
Language : English
Default : No
Forced : No
Text #4
ID : 7
Format : UTF-8
Codec ID : S_TEXT/UTF8
Codec ID/Info : UTF-8 Plain Text
Duration : 1 h 48 min
Bit rate : 76 b/s
Count of elements : 1703
Stream size : 60.7 KiB (0%)
Title : SDH
Language : English
Default : No
Forced : No
Menu
00:00:00.000 : :绗?01 绔?
00:09:16.931 : :绗?02 绔?
00:17:29.173 : :绗?03 绔?
00:26:58.242 : :绗?04 绔?
00:36:10.960 : :绗?05 绔?
00:49:39.852 : :绗?06 绔?
01:11:39.128 : :绗?07 绔?
01:16:52.441 : :绗?08 绔?
01:24:37.322 : :绗?09 绔?
01:31:45.834 : :绗?10 绔?
01:36:05.343 : :绗?11 绔?
01:49:42.868 : :绗?12 绔?-
-Релиз от: -
[free-tor.info].t20479.torrent 
Торрент: Зарегистрирован [ 2019-04-08 12:55 ] · BF581FBF2444D0DB4EB399C4775FA64C3FBB624A

Скачать .torrent

Скачать .torrent

110 KB

Статус: проверено
.torrent скачан: 13 раз
Размер: 10,95 GB
Правила
Похожие темы

[Профиль] [ЛС]
Показать сообщения:    
Ответить на тему

Текущее время: 17-Июл 02:30

Часовой пояс: UTC + 4



Вы не можете начинать темы
Вы не можете отвечать на сообщения
Вы не можете редактировать свои сообщения
Вы не можете удалять свои сообщения
Вы не можете голосовать в опросах
Вы не можете прикреплять файлы к сообщениям
Вы можете скачивать файлы
Анализ веб сайтов Яндекс.Метрика