Несокрушимый (Константин Максимов) [2018, военный, история, драма, BDRip 1080p | GER Transfer | Лицензия]

Ответить на тему
Статистика раздачи [Обновить пиров]
Размер:  7,74 GB   |    Зарегистрирован:  2 месяца 10 дней   |    .torrent скачан:  8 раз
Сидов:  129  [  0 KB/s  ]   Личеров:  5  [  0 KB/s  ]   Подробная статистика пиров
 
   
 
 
Автор Сообщение

Skorp10n ®

Оффлайн

 Активный раздающий 1 Активный раздающий 2
 Активный релизер 1000 Активный релизер 1500 Активный релизер 2000 Активный релизер 250 Активный релизер 3000 Активный релизер 500 Активный релизер 5000 Активный релизер Фильмов (1000) Активный релизер Фильмов (300) Активный релизер Фильмов (600) Активный Форумчанин 1 Активный Форумчанин 2 Активный Форумчанин 3 Активный Форумчанин 4 Друг трекера Карма 1000 Карма 1500 Карма 3000 Карма 500 Меценат Ни дня без новостей Орденосец 1 степени Орденосец 2 степени Орденосец 3 степени Почетный орденосец Почетный репортер С Новым 2016 Годом! С Новым 2017 Годом! С Новым 2018 Годом! С Новым 2019 Годом! Супер Мега Контер Квейк ТОП-10

Пол: Мужской

Стаж: 3 года 10 месяцев

Наличие запрета:

Сообщений: 10765

Откуда: Free-Tor.com

Отдача: не определено

Загрузка: не определено

Нажми

Создавать темы 09-Апр-2019 11:51

[Цитировать]

Информация о фильме- Название: Несокрушимый
Год выхода: 2018
Жанр: Военный, история, драма
Режиссер: Константин Максимов
В ролях: Андрей Чернышов, Владимир Епифанцев, Олег Фомин, Ольга Погодина, Сергей Горобченко, Николай Добрынин, Василий Седых, Владимир Кочетков, Дмитрий Золотухин, Олег Чудницов-О фильме:-В основе фильма реальная история уникального подвига экипажа танка «КВ-1». Приняв неравный бой, экипаж Семена Коновалова уничтожил 16 танков, 2 бронемашины и 8 автомашин с живой силой противника в районе хутора Нижнемитякин Тарасовского района Ростовской области.
Это история не плакатных героев, а разбитных, веселых, очень разных парней, которые просто хотели жить, но в решающую минуту сумели принять единственно верное решение и совершить подвиг достойный легенды.- -Страна: Россия
Студия: Ода Фильм Продакшн, Пиманов и партнёры, Мосфильм
Продолжительность: 01:29:36
Перевод: Не требуется (Русский) - Лицензия (BD GER)-Файл-Качество: BDRip 1080p | GER Transfer | Лицензия
Видео: AVC/H.264, 1920x804, 10,2 Mbps, 24 fps
Звук:
Аудио 1: DTS, 5.1, 1509 kbps - Русский
Аудио 2: AC3, 5.1, 640 kbps - Русский
Субтитры: Русские (Форс., полные)-

Mediainfo

-Общее
Уникальный идентификатор : 119922601781948542754202525978955339930 (0x5A3840C32BB100F77599018AA0B3D89A)
Полное имя : Nesokrushimyi.2018.BDRip.1080p.mkv
Формат : Matroska
Версия формата : Version 4
Размер файла : 7,74 Гбайт
Продолжительность : 1 ч. 29 м.
Общий поток : 12,4 Мбит/сек
Название фильма : Несокрушимый.2018.BDRip.1080p
Дата кодирования : UTC 2019-04-08 14:42:32
Программа кодирования : mkvmerge v23.0.0 ('The Bride Said No') 64-bit
Библиотека кодирования : libebml v1.3.6 + libmatroska v1.4.9
Видео
Идентификатор : 1
Формат : AVC
Формат/Информация : Advanced Video Codec
Профиль формата : [email protected]
Настройки формата : CABAC / 5 Ref Frames
Параметр CABAC формата : Да
Параметр RefFrames формата : 5 кадров
Идентификатор кодека : V_MPEG4/ISO/AVC
Продолжительность : 1 ч. 29 м.
Битрейт : 10,2 Мбит/сек
Ширина : 1920 пикселей
Высота : 804 пикселя
Соотношение сторон : 2,40:1
Режим частоты кадров : Постоянный
Частота кадров : 24,000 кадра/сек
Цветовое пространство : YUV
Субдискретизация насыщенности : 4:2:0
Битовая глубина : 8 бит
Тип развёртки : Прогрессивная
Бит/(Пиксели*Кадры) : 0.276
Размер потока : 6,39 Гбайт (83%)
Заголовок : rip by -=walledol=-
Библиотека кодирования : x264 core 157 r2969 d4099dd
Настройки программы : cabac=1 / ref=5 / deblock=1:-3:-3 / analyse=0x3:0x133 / me=umh / subme=11 / psy=1 / psy_rd=1.00:0.10 / mixed_ref=1 / me_range=48 / chroma_me=1 / trellis=2 / 8x8dct=1 / cqm=0 / deadzone=21,11 / fast_pskip=0 / chroma_qp_offset=-3 / threads=12 / lookahead_threads=3 / sliced_threads=0 / nr=0 / decimate=1 / interlaced=0 / bluray_compat=0 / constrained_intra=0 / bframes=10 / b_pyramid=2 / b_adapt=2 / b_bias=0 / direct=3 / weightb=1 / open_gop=0 / weightp=2 / keyint=240 / keyint_min=24 / scenecut=40 / intra_refresh=0 / rc_lookahead=60 / rc=2pass / mbtree=0 / bitrate=10220 / ratetol=1.0 / qcomp=0.60 / qpmin=0 / qpmax=69 / qpstep=4 / cplxblur=20.0 / qblur=0.5 / vbv_maxrate=30000 / vbv_bufsize=33000 / nal_hrd=none / filler=0 / ip_ratio=1.40 / pb_ratio=1.30 / aq=3:0.75
Язык : Russian
Default : Да
Forced : Нет
Аудио #1
Идентификатор : 2
Формат : DTS
Формат/Информация : Digital Theater Systems
Идентификатор кодека : A_DTS
Продолжительность : 1 ч. 29 м.
Вид битрейта : Постоянный
Битрейт : 1509 Кбит/сек
Каналы : 6 каналов
Channel layout : C L R Ls Rs LFE
Частота : 48,0 КГц
Частота кадров : 93,750 кадра/сек (512 SPF)
Битовая глубина : 24 бит
Метод сжатия : С потерями
Размер потока : 967 Мбайт (12%)
Язык : Russian
Default : Да
Forced : Нет
Аудио #2
Идентификатор : 3
Формат : AC-3
Формат/Информация : Audio Coding 3
Коммерческое название : Dolby Digital
Идентификатор кодека : A_AC3
Продолжительность : 1 ч. 29 м.
Вид битрейта : Постоянный
Битрейт : 640 Кбит/сек
Каналы : 6 каналов
Channel layout : L R C LFE Ls Rs
Частота : 48,0 КГц
Частота кадров : 31,250 кадров/сек (1536 SPF)
Битовая глубина : 16 бит
Метод сжатия : С потерями
Размер потока : 410 Мбайт (5%)
Язык : Russian
ServiceKind : Complete Main
Default : Нет
Forced : Нет
Текст #1
Идентификатор : 4
Формат : UTF-8
Идентификатор кодека : S_TEXT/UTF8
Идентификатор кодека/Информация : UTF-8 Plain Text
Продолжительность : 1 ч. 25 м.
Битрейт : 2 бит/сек
ElementCount : 7
Размер потока : 1,32 Кбайт (0%)
Заголовок : Forced
Язык : Russian
Default : Да
Forced : Нет
Текст #2
Идентификатор : 5
Формат : UTF-8
Идентификатор кодека : S_TEXT/UTF8
Идентификатор кодека/Информация : UTF-8 Plain Text
Продолжительность : 1 ч. 26 м.
Битрейт : 78 бит/сек
ElementCount : 898
Размер потока : 49,3 Кбайт (0%)
Заголовок : Full
Язык : Russian
Default : Нет
Forced : Нет
Меню
00:00:00.000 : en:Kapitel 01
00:06:55.000 : en:Kapitel 02
00:12:34.833 : en:Kapitel 03
00:18:15.542 : en:Kapitel 04
00:23:11.208 : en:Kapitel 05
00:30:32.542 : en:Kapitel 06
00:37:27.083 : en:Kapitel 07
00:43:47.958 : en:Kapitel 08
00:49:43.625 : en:Kapitel 09
00:57:52.542 : en:Kapitel 10
01:01:58.750 : en:Kapitel 11
01:07:38.625 : en:Kapitel 12
01:12:59.875 : en:Kapitel 13
01:18:22.958 : en:Kapitel 14
01:23:34.625 : en:Kapitel 15
01:25:35.292 : en:Kapitel 16-
-

Скриншоты

--
-
[free-tor.info].t20539.torrent 
Торрент: Зарегистрирован [ 2019-04-09 11:51 ] · 68A4BB754A9EEC9247E0137B1356EBCBE65EE4B7

Скачать .torrent

Скачать .torrent

40 KB

Статус: проверено
.torrent скачан: 8 раз
Размер: 7,74 GB
Правила
Похожие темы

[Профиль] [ЛС]
Показать сообщения:    
Ответить на тему

Текущее время: 20-Июн 03:46

Часовой пояс: UTC + 4



Вы не можете начинать темы
Вы не можете отвечать на сообщения
Вы не можете редактировать свои сообщения
Вы не можете удалять свои сообщения
Вы не можете голосовать в опросах
Вы не можете прикреплять файлы к сообщениям
Вы можете скачивать файлы
Анализ веб сайтов Яндекс.Метрика