Чужая ненависть / The Hate U Give (Джордж Тиллман мл.) [2018, драма, криминал, BDRip 1080p от селезень | iTunes]

Ответить на тему
Статистика раздачи [Обновить пиров]
Размер:  13,95 GB   |    Зарегистрирован:  3 месяца 2 дня   |    .torrent скачан:  10 раз
Сидов:  75  [  0 KB/s  ]   Личеров:  11  [  0 KB/s  ]   Подробная статистика пиров
 
   
 
 
Автор Сообщение

Skorp10n ®

Оффлайн

 Активный раздающий 1 Активный раздающий 2
 Активный релизер 1000 Активный релизер 1500 Активный релизер 2000 Активный релизер 250 Активный релизер 3000 Активный релизер 500 Активный релизер 5000 Активный релизер Фильмов (1000) Активный релизер Фильмов (300) Активный релизер Фильмов (600) Активный Форумчанин 1 Активный Форумчанин 2 Активный Форумчанин 3 Активный Форумчанин 4 Друг трекера Карма 1000 Карма 1500 Карма 3000 Карма 500 Меценат Ни дня без новостей Орденосец 1 степени Орденосец 2 степени Орденосец 3 степени Почетный орденосец Почетный репортер С Новым 2016 Годом! С Новым 2017 Годом! С Новым 2018 Годом! С Новым 2019 Годом! Супер Мега Контер Квейк ТОП-10

Пол: Мужской

Стаж: 3 года 11 месяцев

Наличие запрета:

Сообщений: 10847

Откуда: Free-Tor.com

Отдача: не определено

Загрузка: не определено

Нажми

Создавать темы 13-Апр-2019 18:55

[Цитировать]

Информация о фильме- Название: Чужая ненависть
Оригинальное название: The Hate U Give
Год выхода: 2018
Жанр: Драма, криминал
Режиссер: Джордж Тиллман мл.
В ролях: Амандла Стенберг, Реджина Холл, Расселл Хорнсби, Энтони Маки, Исса Рэй, Коммон, Элджи Смит, Сабрина Карпентер, Кей Джей Апа, Доминик Фишбэк- -О фильме: Девушка-подросток из чёрного гетто Старр мечется между двумя мирами - своим домом в неспокойном бедном районе и благополучной школой, где она учится вместе с белыми детьми. Положение Старр осложняется, когда она становится единственной свидетельницей того, как полицейский выстрелил в её безоружного друга, подозреваемого в наркоторговле.-Страна: США
Студия: Fox 2000 Pictures, State Street Pictures, Temple Hill Entertainment
Продолжительность: 02:13:05
Перевод: Профессиональный многоголосый | iTunes-Качество: BDRip 1080p
Видео: MPEG-4 AVC, 1920x800, 14 Mbit/s, 23.976 fps
Звук:
Аудио #01: 48 kHz, AC3, 5.1, 384 Kbps | iTunes | RUS |
Аудио #02: 48 kHz, AC3, 5.1, 640 Kbps | Оригинал | ENG |
Субтитры: Русские (Forced, full), английские-

Скриншоты

--
-

MI

-General
Unique ID : 326210962256904927880016397511137319266 (0xF569F22FA9FB359E210DB564A7AA5962)
Complete name : D:Video111Blu rayThe.Hate.U.Give.2018.BDRip.1080p.seleZen.mkv
Format : Matroska
Format version : Version 4
File size : 13.9 GiB
Duration : 2 h 13 min
Overall bit rate mode : Variable
Overall bit rate : 15.0 Mb/s
Movie name : The Hate U Give 2018 from селезень
Encoded date : UTC 2019-04-12 18:27:39
Writing application : mkvmerge v32.0.0 ('Astral Progressions') 64-bit
Writing library : libebml v1.3.7 + libmatroska v1.5.0
Video
ID : 1
Format : AVC
Format/Info : Advanced Video Codec
Format profile : [email protected]
Format settings : CABAC / 4 Ref Frames
Format settings, CABAC : Yes
Format settings, ReFrames : 4 frames
Codec ID : V_MPEG4/ISO/AVC
Duration : 2 h 13 min
Bit rate mode : Variable
Bit rate : 14.0 Mb/s
Maximum bit rate : 50.0 Mb/s
Width : 1 920 pixels
Height : 800 pixels
Display aspect ratio : 2.40:1
Frame rate mode : Constant
Frame rate : 23.976 (24000/1001) FPS
Color space : YUV
Chroma subsampling : 4:2:0
Bit depth : 8 bits
Scan type : Progressive
Bits/(Pixel*Frame) : 0.380
Stream size : 13.0 GiB (93%)
Title : Du
Writing library : x264 core 142 r2431+42 c69a006 tMod [[email protected] X86_64]
Encoding settings : cabac=1 / ref=5 / deblock=1:-3:-3 / analyse=0x3:0x133 / me=umh / subme=11 / psy=1 / fade_compensate=0.00 / psy_rd=1.04:1.05 / mixed_ref=1 / me_range=48 / chroma_me=1 / trellis=2 / 8x8dct=1 / cqm=0 / deadzone=21,11 / fast_pskip=0 / chroma_qp_offset=-4 / threads=16 / lookahead_threads=2 / sliced_threads=0 / nr=0 / decimate=0 / interlaced=0 / bluray_compat=0 / constrained_intra=0 / fgo=0 / bframes=8 / b_pyramid=1 / b_adapt=2 / b_bias=0 / direct=3 / weightb=1 / open_gop=0 / weightp=2 / keyint=240 / keyint_min=23 / scenecut=40 / intra_refresh=0 / rc_lookahead=150 / rc=2pass / mbtree=0 / bitrate=14000 / ratetol=1.0 / qcomp=0.70 / qpmin=0:0:0 / qpmax=69:69:69 / qpstep=4 / cplxblur=20.0 / qblur=0.5 / vbv_maxrate=50000 / vbv_bufsize=62500 / nal_hrd=vbr / filler=0 / ip_ratio=1.30 / pb_ratio=1.20 / aq=2:0.80 / aq-sensitivity=10.00 / aq-factor=1.00:1.00:1.00 / aq2=0 / aq3=0
Language : English
Default : Yes
Forced : No
Color range : Limited
Color primaries : BT.709
Transfer characteristics : BT.709
Matrix coefficients : BT.709
Audio #1
ID : 2
Format : AC-3
Format/Info : Audio Coding 3
Commercial name : Dolby Digital
Codec ID : A_AC3
Duration : 2 h 13 min
Bit rate mode : Constant
Bit rate : 384 kb/s
Channel(s) : 6 channels
Channel layout : L R C LFE Ls Rs
Sampling rate : 48.0 kHz
Frame rate : 31.250 FPS (1536 SPF)
Bit depth : 16 bits
Compression mode : Lossy
Stream size : 366 MiB (3%)
Title : iTunes
Language : Russian
Service kind : Complete Main
Default : Yes
Forced : Yes
Audio #2
ID : 3
Format : AC-3
Format/Info : Audio Coding 3
Commercial name : Dolby Digital
Codec ID : A_AC3
Duration : 2 h 13 min
Bit rate mode : Constant
Bit rate : 640 kb/s
Channel(s) : 6 channels
Channel layout : L R C LFE Ls Rs
Sampling rate : 48.0 kHz
Frame rate : 31.250 FPS (1536 SPF)
Bit depth : 16 bits
Compression mode : Lossy
Stream size : 609 MiB (4%)
Title : Original
Language : English
Service kind : Complete Main
Default : No
Forced : No
Text #1
ID : 4
Format : UTF-8
Codec ID : S_TEXT/UTF8
Codec ID/Info : UTF-8 Plain Text
Duration : 2 h 9 min
Bit rate : 0 b/s
Count of elements : 16
Stream size : 624 Bytes (0%)
Title : Forced
Language : Russian
Default : Yes
Forced : Yes
Text #2
ID : 5
Format : UTF-8
Codec ID : S_TEXT/UTF8
Codec ID/Info : UTF-8 Plain Text
Duration : 2 h 12 min
Bit rate : 88 b/s
Count of elements : 1910
Stream size : 85.8 KiB (0%)
Title : Full
Language : Russian
Default : No
Forced : No
Text #3
ID : 6
Format : UTF-8
Codec ID : S_TEXT/UTF8
Codec ID/Info : UTF-8 Plain Text
Duration : 2 h 7 min
Bit rate : 66 b/s
Count of elements : 2044
Stream size : 62.4 KiB (0%)
Title : Full
Language : English
Default : No
Forced : No
Text #4
ID : 7
Format : UTF-8
Codec ID : S_TEXT/UTF8
Codec ID/Info : UTF-8 Plain Text
Duration : 2 h 12 min
Bit rate : 80 b/s
Count of elements : 2456
Stream size : 77.8 KiB (0%)
Title : SDH
Language : English
Default : No
Forced : No
Menu
00:00:00.000 : en:00:00:00.000
00:03:55.777 : en:00:03:55.777
00:08:18.081 : en:00:08:18.081
00:13:14.252 : en:00:13:14.252
00:19:32.129 : en:00:19:32.129
00:24:48.320 : en:00:24:48.320
00:29:34.314 : en:00:29:34.314
00:34:54.217 : en:00:34:54.217
00:40:09.532 : en:00:40:09.532
00:45:05.411 : en:00:45:05.411
00:50:09.215 : en:00:50:09.215
00:58:27.587 : en:00:58:27.587
01:03:58.376 : en:01:03:58.376
01:10:00.988 : en:01:10:00.988
01:14:51.278 : en:01:14:51.278
01:19:50.786 : en:01:19:50.786
01:27:09.599 : en:01:27:09.599
01:32:11.693 : en:01:32:11.693
01:37:36.225 : en:01:37:36.225
01:43:59.066 : en:01:43:59.066
01:49:39.156 : en:01:49:39.156
01:56:20.432 : en:01:56:20.432
01:58:00.156 : en:01:58:00.156
02:03:50.965 : en:02:03:50.965-
-Релиз от: -
[free-tor.info].t20585.torrent 
Торрент: Зарегистрирован [ 2019-04-13 18:55 ] · C9895476B1ADD2E9A16B18397100CD428C693D8C

Скачать .torrent

Скачать .torrent

140 KB

Статус: проверено
.torrent скачан: 10 раз
Размер: 13,95 GB
Правила
Похожие темы

[Профиль] [ЛС]
Показать сообщения:    
Ответить на тему

Текущее время: 16-Июл 04:01

Часовой пояс: UTC + 4



Вы не можете начинать темы
Вы не можете отвечать на сообщения
Вы не можете редактировать свои сообщения
Вы не можете удалять свои сообщения
Вы не можете голосовать в опросах
Вы не можете прикреплять файлы к сообщениям
Вы можете скачивать файлы
Анализ веб сайтов Яндекс.Метрика